Today is a free download without charge Download

Mylene Farmer - Avant que l'ombre A Bercy (2006) [H.264/720p-LQ] BDRip

Reply to topic
 
Author
Message

Varius ®

Gender:

Longevity: 11 years

Posts: 2428

Location: Hell

Торрент-статистика

Post 13-Sep-2012 14:54

[Quote]

Mylene Farmer - Avant que l'ombre A Bercy (2006) BDRip- Оригинальное название: Mylene Farmer - Avant que l'ombre A Bercy
Год выпуска: 2006
Жанр: Музыка
Продолжительность: 02:16:22
Описание:
Mylene Farmer открывает в 2006 году , тур который включал 13 концертов , начался 13 января и закончился 16 дней спустя, 29 января.
Tracklist:
1. "Introduction" (7:32)
2. "Peut-etre toi" (3:22)
3. "XXL" (5:27)
4. "Dans les rues de Londres" (4:16)
5. "California" (5:15)
6. "Porno graphique" (4:07)
7. "Sans contrefacon" (4:48)
8. "Q.I" (6:50)
9. "C'est une belle journee" (4:14)
10. "Ange, parle-moi" (4:32)
11. "Redonne-moi" (5:36)
12. "Rever" (7:41)
13. "L'Autre" (7:25)
14. "Desenchantee" (9:08)
15. "Nobody Knows" (5:36)
16. "Je t'aime melancolie" (4:47)
17. "L'Amour n'est rien..." (4:59)
18. "Deshabillez-moi" (3:54)
19. "Les Mots" (5:05)
20. "Fuck Them All" (8:18)
21. "Avant que l'ombre..." (7:45)
22. "Generique de fin" (3:56)
-Видеокодек: MPEG-4 AVC/H.264
Битрейт видео: ~3500 Kbps
Размер кадра: 1280x704
Качество видео: BDRip
Аудиокодек: AC3 5.1
Битрейт аудио: 640 Kbps

Media Info

General
Unique ID : 246623173191663199249682315952302434095 (0xB989E53A70736603A030732C8735A72F)
Complete name : Mylene Farmer - Avant que l'ombre � Bercy 2006.mkv
Format : Matroska
Format version : Version 2
File size : 3.96 GiB
Duration : 2h 16mn
Overall bit rate : 4 155 Kbps
Movie name : Mylene Farmer - Avant que l'ombre � Bercy
Encoded date : UTC 2012-09-09 18:57:07
Writing application : mkvmerge v5.8.0 ('No Sleep / Pillow')
Writing library : libebml v1.2.3 + libmatroska v1.3.0
Attachment : Yes
Video
ID : 1
Format : AVC
Format/Info : Advanced Video Codec
Format profile : [url=mailto:[email protected]][email protected][/url]
Format settings, CABAC : Yes
Format settings, ReFrames : 6 frames
Codec ID : V_MPEG4/ISO/AVC
Duration : 2h 16mn
Bit rate : 3 500 Kbps
Width : 1 280 pixels
Height : 704 pixels
Display aspect ratio : 16:9
Original display aspect ratio : 16:9
Frame rate mode : Variable
Frame rate : 25.000 fps
Color space : YUV
Chroma subsampling : 4:2:0
Bit depth : 8 bits
Scan type : Progressive
Bits/(Pixel*Frame) : 0.155
Stream size : 3.27 GiB (83%)
Writing library : x264 core 125 r2208
Encoding settings : cabac=1 / ref=6 / deblock=1:-3:1 / analyse=0x3:0x133 / me=esa / subme=9 / psy=1 / psy_rd=1.70:0.90 / mixed_ref=0 / me_range=32 / chroma_me=1 / trellis=1 / 8x8dct=1 / cqm=0 / deadzone=21,11 / fast_pskip=1 / chroma_qp_offset=-4 / threads=6 / lookahead_threads=1 / sliced_threads=0 / nr=0 / decimate=1 / interlaced=0 / bluray_compat=0 / constrained_intra=0 / bframes=3 / b_pyramid=2 / b_adapt=1 / b_bias=0 / direct=3 / weightb=1 / open_gop=1 / weightp=2 / keyint=250 / keyint_min=25 / scenecut=80 / intra_refresh=0 / rc_lookahead=40 / rc=abr / mbtree=1 / bitrate=3500 / ratetol=1.0 / qcomp=0.60 / qpmin=10 / qpmax=69 / qpstep=4 / vbv_maxrate=20000 / vbv_bufsize=20000 / nal_hrd=none / ip_ratio=1.40 / aq=1:1.00
Language : French
Default : Yes
Forced : Yes
Audio
ID : 2
Format : AC-3
Format/Info : Audio Coding 3
Mode extension : CM (complete main)
Format settings, Endianness : Big
Codec ID : A_AC3
Duration : 2h 16mn
Bit rate mode : Constant
Bit rate : 640 Kbps
Channel(s) : 6 channels
Channel positions : Front: L C R, Side: L R, LFE
Sampling rate : 48.0 KHz
Bit depth : 16 bits
Compression mode : Lossy
Stream size : 624 MiB (15%)
Language : French
Default : Yes
Forced : Yes
-Скриншоты:
Видеоряд дополнительно очищен от фоновых шумов
=Сравнить=
       
       

_________________

Создавая "Новую папку", не считайте себя Создателем - это право Вам дано Админом


Other forum [Profile] [PM]
Display posts from previous:    
Reply to topic

The time now is: Today 22:31

All times are GMT + 3 Hours



You cannot post new topics in this forum
You cannot reply to topics in this forum
You cannot edit your posts in this forum
You cannot delete your posts in this forum
You cannot vote in polls in this forum
You cannot attach files in this forum
You cannot download files in this forum