Today is a free download without charge Download

Лунный свет 2: Вселенная света / Lichtmond 2: Universe of Light 2D (Джорджио Коппехели, Мартин Коппехели) [2012 г., видовой, музыка, NewAge, ambient, chill out, trance, BDRip]

Reply to topic
 
Author
Message

Jurchic ®

Longevity: 8 years 7 months

Posts: 42

Location: такое любопытство

Торрент-статистика

Post 05-Oct-2012 04:27

[Quote]

Лунный свет 2: Вселенная света / Lichtmond 2: Universe of Light 2D(2012) BDRip [H.264]-- Год выпуска: 2012
Страна: Германия AL!VE
Жанр: видовой, музыка, NewAge, ambient, chill out, trance
Продолжительность: 00:50:56
Перевод: Не требуется
Премьера в мире: сентябрь 2012 «Гамбургский Планетарий»--Режиссер: Джорджио Коппехели, Мартин Коппехели
Музыканты: Martin (synthesizer, bass, esraj) and Giorgio (synthesizer & electronics) Koppehele, Gabi (vocals, lyrics) and Suna (vocals, percussion, melodies, lyrics) Koppehele, Meera Fe (vocals, piano, esraj), Saskia Philipps (vocals), Thomas E. Killinger (narration of the poems, piano) feat. Alan Parsons & The SubClones, I Muvrin--Описание: Великолепная музыка, изумительные видовые панорамы!!! Второй мультимедийный порект "Lichtmond" - Universe of Light (Вселенная света) подготовлен совместно с музыкальной легендой Alan Parsons. Мировая премьера состоялась в Гамбургском Планетарии в сентябре 2012 года - уникальное 360° шоу всех времен и народов. "Выше, быстрее, шире и все в XXL" - путешествие в фэнтези, в лучах лунного света через волшебные звуки, еще более масштабно и профессионально чем в первом фильме. Погрузитесь в неординарную музыку и пусть ваши FullHD экраны превратятся на один час в двери сказочных миров, которые до селе Вам не приходилось видеть, но наверняка вы мечтали о них.Потрясающее путешествие в фэнтези, в лучах лунного света через волшебные звуки.--Качество: BDRip
Формат: MKV
Видео кодек: MPEG-4 AVC/H.264
Аудио кодек: DTS
Видео: 4613 Кбит/сек, 1280х720 (16:9), 29,967 кадра/сек, AVC
Аудио: 1510 Кбит/сек, 48,0 КГц, 24бит, 6 каналов, DTS

MediaInfo:

Код:
Общее
Уникальный идентификатор                 : 195837391725459202460715045128256363804 (0x9354E8E1CD7C93939F7C8EEA59081D1C)
Полное имя                               : :\\\\Lichtmond.2.Universe.of.Light.2012.720p.mkv
Формат                                   : Matroska
Версия формата                           : Version 2
Размер файла                             : 2,18 Гбайт
Продолжительность                        : 50 м.
Общий поток                              : 6123 Кбит/сек
Дата кодирования                         : UTC 2012-09-27 16:45:25
Программа кодирования                    : mkvmerge v4.0.0 (\'The Stars were mine\') built on Jun  6 2010 16:18:42
Библиотека кодирования                   : libebml v1.0.0 + libmatroska v1.0.0
Видео
Идентификатор                            : 1
Формат                                   : AVC
Формат/Информация                        : Advanced Video Codec
Профиль формата                          : [email protected]
Параметр CABAC формата                   : Да
Параметр ReFrames формата                : 5 кадров
Идентификатор кодека                     : V_MPEG4/ISO/AVC
Продолжительность                        : 50 м.
Битрейт                                  : 4613 Кбит/сек
Ширина                                   : 1280 пикселей
Высота                                   : 720 пикселей
Соотношение сторон                       : 16:9
Частота кадров                           : 23,976 кадра/сек
Цветовое пространство                    : YUV
Субдискретизация насыщенности            : 4:2:0
Битовая глубина                          : 8 бит
Тип развёртки                            : Прогрессивная
Бит/(Пиксели*Кадры)                      : 0.209
Размер потока                            : 1,60 Гбайт (73%)
Библиотека кодирования                   : x264 core 128 r2216 198a7ea
Настройки программы                      : cabac=1 / ref=5 / deblock=1:0:0 / analyse=0x3:0x133 / me=umh / subme=8 / psy=1 / psy_rd=1.00:0.00 / mixed_ref=1 / me_range=16 / chroma_me=1 / trellis=1 / 8x8dct=1 / cqm=0 / deadzone=21,11 / fast_pskip=1 / chroma_qp_offset=-2 / threads=24 / lookahead_threads=4 / sliced_threads=0 / nr=0 / decimate=1 / interlaced=0 / bluray_compat=0 / constrained_intra=0 / bframes=3 / b_pyramid=2 / b_adapt=1 / b_bias=0 / direct=1 / weightb=1 / open_gop=0 / weightp=2 / keyint=250 / keyint_min=23 / scenecut=40 / intra_refresh=0 / rc=2pass / mbtree=0 / bitrate=4613 / ratetol=1.0 / qcomp=0.60 / qpmin=0 / qpmax=69 / qpstep=4 / cplxblur=20.0 / qblur=0.5 / ip_ratio=1.40 / pb_ratio=1.30 / aq=1:1.00
Язык                                     : English
Default                                  : Нет
Forced                                   : Нет
Аудио
Идентификатор                            : 2
Формат                                   : DTS
Формат/Информация                        : Digital Theater Systems
Идентификатор кодека                     : A_DTS
Продолжительность                        : 50 м.
Вид битрейта                             : Постоянный
Битрейт                                  : 1510 Кбит/сек
Каналы                                   : 6 каналов
Расположение каналов                     : Front: L C R, Side: L R, LFE
Частота                                  : 48,0 КГц
Битовая глубина                          : 24 бит
Метод сжатия                             : С потерями
Размер потока                            : 550 Мбайт (25%)
Default                                  : Да
Forced                                   : Нет
Меню
00:00:00.000                             : en:00:00:00.000
00:02:20.140                             : en:00:02:20.140
00:06:28.388                             : en:00:06:28.388
00:11:34.694                             : en:00:11:34.694
00:17:54.073                             : en:00:17:54.073
00:23:56.435                             : en:00:23:56.435
00:29:12.918                             : en:00:29:12.918
00:35:16.114                             : en:00:35:16.114
00:41:29.487                             : en:00:41:29.487
00:47:43.444                             : en:00:47:43.444
00:50:56.762                             : en:00:50:56.762

Скриншоты

       
Other forum [Profile] [PM]
Display posts from previous:    
Reply to topic

The time now is: Today 03:59

All times are GMT + 3 Hours



You cannot post new topics in this forum
You cannot reply to topics in this forum
You cannot edit your posts in this forum
You cannot delete your posts in this forum
You cannot vote in polls in this forum
You cannot attach files in this forum
You cannot download files in this forum