Today is a free download without charge Download

(Instrumental) VA - Instrumental Gold Collection - World's Best Hits, Volume 1 (2CD) - 2001, APE (image + .cue), lossless

Reply to topic
 
Author
Message

sergej644 ®

Gender:

Longevity: 7 years

Posts: 629

Торрент-статистика

Post 07-Dec-2012 09:58

[Quote]

-VA - Instrumental Gold Collection - World's Best Hits, Volume 1 (2CD)-
Страна: All World
Жанр: Instrumental
Год выпуска: 2001
Формат: APE (image + .cue)
Битрейт аудио: lossless
Продолжительность: 02:16:04
-Трэклист:-

CD 1

продолжительность: 01:10:57
01.R. Clayderman - The Phantom of the Opera (04:26)
02.F. Goya - Romance De Amour (03:17)
03.Ocarina - Moonlight Reaggae (04:34)
04.E. Morricone - Chi Mai (05:05)
05.H. Manciny - The Pink Panter (02:37)
06.F. Papetti - Summertime (02:24)
07.D. Brubeck - Take Five (05:23)
08.P. Mauriat - Love Is Blue (02:37)
09.J. Last - Nights in White Satin (04:58)
10.C. Atkins - Jam Man (03:18)
11.Exeption - Taccata (05:14)
12.P. Mauriat - La Gazza Landra (04:29)
13.F. Goya - La Raggazia Di Blue (02:39)
14.The Ventures - Walk, Don't Run (02:23)
15.F. Pappeti - I Just Called to Say I Love You (03:10)
16.Saint Preux - Amours Meteores (03:12)
17.D. Grusin - Fratelli Chase (03:17)
18.J. Last - The Lonely Sheepheard (04:20)
19.G. Moroder - Love the Me From Flash Dance (03:26)

Лог создания рипа

Код:
Exact Audio Copy V0.99 prebeta 5 from 4. May 2009
Отчёт EAC об извлечении, выполненном 22. августа 2009, 14:22
Various / Instrumental Gold Collection - World's Best Hits, Volume 1 (disc 1)
Дисковод: PIONEER DVD-RW  DVR-216D   Adapter: 0  ID: 0
Режим чтения                 : Достоверность
Использование точного потока : Да
Отключение кэша аудио        : Да
Использование указателей C2  : Нет
Коррекция смещения при чтении                     : 96
Способность читать области Lead-in и Lead-out     : Нет
Заполнение пропущенных сэмплов тишиной            : Да
Удаление блоков с тишиной в начале и конце        : Нет
При вычислениях CRC использовались нулевые сэмплы : Да
Интерфейс                                         : Установленный внешний ASPI-интерфейс
Выходной формат : Внутренние WAV-операции
Формат сэмплов  : 44.100 Гц; 16 бит; стерео
TOC извлечённого CD
     Трек |   Старт  | Длительность | Начальный сектор | Конечный сектор
    ---------------------------------------------------------------------
       1  |  0:00.00 |    4:26.44   |           0      |      19993
       2  |  4:26.44 |    3:17.07   |       19994      |      34775
       3  |  7:43.51 |    4:34.06   |       34776      |      55331
       4  | 12:17.57 |    5:05.15   |       55332      |      78221
       5  | 17:22.72 |    2:37.43   |       78222      |      90039
       6  | 20:00.40 |    2:24.07   |       90040      |     100846
       7  | 22:24.47 |    5:23.14   |      100847      |     125085
       8  | 27:47.61 |    2:37.19   |      125086      |     136879
       9  | 30:25.05 |    4:58.41   |      136880      |     159270
      10  | 35:23.46 |    3:18.46   |      159271      |     174166
      11  | 38:42.17 |    5:14.63   |      174167      |     197779
      12  | 43:57.05 |    4:29.59   |      197780      |     218013
      13  | 48:26.64 |    2:39.50   |      218014      |     229988
      14  | 51:06.39 |    2:23.45   |      229989      |     240758
      15  | 53:30.09 |    3:10.62   |      240759      |     255070
      16  | 56:40.71 |    3:12.43   |      255071      |     269513
      17  | 59:53.39 |    3:17.08   |      269514      |     284296
      18  | 63:10.47 |    4:20.58   |      284297      |     303854
      19  | 67:31.30 |    3:26.40   |      303855      |     319344
Характеристики диапазона извлечения и сообщения об ошибках
Выбранный диапазон
     Имя файла D:\DVD\Раздачи торрентов\Instrumental Gold Collection - World's Best Hits\Том 1\CD1\Various - Instrumental Gold Collection - World's Best Hits, Volume 1 (disc 1).wav
     Пиковый уровень 99.8 %
     Качество диапазона 99.9 %
     CRC копии 9BF08D88
     Копирование... OK
Ошибок не произошло

Содержание индексной карты *cue

Код:
REM GENRE Instrumental
REM DATE 2000
REM DISCID 0E10A113
REM COMMENT "ExactAudioCopy v0.99pb5"
PERFORMER "Various"
TITLE "Instrumental Gold Collection - World's Best Hits, Volume 1 (disc 1)"
FILE "Various - Instrumental Gold Collection - World's Best Hits, Volume 1 (disc 1).ape" WAVE
  TRACK 01 AUDIO
    TITLE "The Phantom of the Opera"
    PERFORMER "R. Clayderman"
    INDEX 01 00:00:00
  TRACK 02 AUDIO
    TITLE "Romance De Amour"
    PERFORMER "F. Goya"
    INDEX 01 04:26:44
  TRACK 03 AUDIO
    TITLE "Moonlight Reaggae"
    PERFORMER "Ocarina"
    INDEX 01 07:43:51
  TRACK 04 AUDIO
    TITLE "Chi Mai"
    PERFORMER "E. Morricone"
    INDEX 01 12:17:57
  TRACK 05 AUDIO
    TITLE "The Pink Panter"
    PERFORMER "H. Manciny"
    INDEX 01 17:22:72
  TRACK 06 AUDIO
    TITLE "Summertime"
    PERFORMER "F. Papetti"
    INDEX 01 20:00:40
  TRACK 07 AUDIO
    TITLE "Take Five"
    PERFORMER "D. Brubeck"
    INDEX 01 22:24:47
  TRACK 08 AUDIO
    TITLE "Love Is Blue"
    PERFORMER "P. Mauriat"
    INDEX 01 27:47:61
  TRACK 09 AUDIO
    TITLE "Nights in White Satin"
    PERFORMER "J. Last"
    INDEX 01 30:25:05
  TRACK 10 AUDIO
    TITLE "Jam Man"
    PERFORMER "C. Atkins"
    INDEX 01 35:23:46
  TRACK 11 AUDIO
    TITLE "Taccata"
    PERFORMER "Exeption"
    INDEX 01 38:42:17
  TRACK 12 AUDIO
    TITLE "La Gazza Landra"
    PERFORMER "P. Mauriat"
    INDEX 01 43:57:05
  TRACK 13 AUDIO
    TITLE "La Raggazia Di Blue"
    PERFORMER "F. Goya"
    INDEX 01 48:26:64
  TRACK 14 AUDIO
    TITLE "Walk, Don't Run"
    PERFORMER "The Ventures"
    INDEX 01 51:06:39
  TRACK 15 AUDIO
    TITLE "I Just Called to Say I Love You"
    PERFORMER "F. Pappeti"
    INDEX 01 53:30:09
  TRACK 16 AUDIO
    TITLE "Amours Meteores"
    PERFORMER "Saint Preux"
    INDEX 01 56:40:71
  TRACK 17 AUDIO
    TITLE "Fratelli Chase"
    PERFORMER "D. Grusin"
    INDEX 01 59:53:39
  TRACK 18 AUDIO
    TITLE "The Lonely Sheepheard"
    PERFORMER "J. Last"
    INDEX 01 63:10:47
  TRACK 19 AUDIO
    TITLE "Love the Me From Flash Dance"
    PERFORMER "G. Moroder"
    INDEX 01 67:31:30
-

CD 2

продолжительность: 01:05:07
01.R. Clayderman - La Cumparsita (03:14)
02.P. Weekers - El Condor Pasa (03:15)
03.P. Mauriat - Toccata (02:38)
04.Santana - Moonflower (04:47)
05.J.M. Jarre - Magnetic Fields part5 (03:31)
06.D. Marouani - Space Opera part3 (03:48)
07.The Ventures - Rap City (02:02)
08.Ocarina - Song of Ocarina (03:37)
09.The Shadows - Man of Mistery (02:01)
10.C. Dulfer - Lilly Was Here (04:28)
11.F. Papetti - Emanuelle (03:20)
12.F. Duval - Ballade Pour Adeline (02:37)
13.E. Simoni - Pop Corn (02:59)
14.Vangelis - La Petite Fille De La Mer (05:55)
15.F. Pourcell - Besame Mucho (03:11)
16.Jethro Tull - Bouree (03:44)
17.E. Morricone - Addio a Cheyene (02:39)
18.R. Clayderman - Fur Elise (02:27)
19.P. Mauriat - Badinerie (01:24)
20.C. Atkins - Ave Maria (03:22)

Лог создания рипа

Код:
Exact Audio Copy V0.99 prebeta 5 from 4. May 2009
Отчёт EAC об извлечении, выполненном 22. августа 2009, 14:38
Various / Instrumental Gold Collection - World's Best Hits, Volume 1 (disc 2)
Дисковод: PIONEER DVD-RW  DVR-216D   Adapter: 0  ID: 0
Режим чтения                 : Достоверность
Использование точного потока : Да
Отключение кэша аудио        : Да
Использование указателей C2  : Нет
Коррекция смещения при чтении                     : 96
Способность читать области Lead-in и Lead-out     : Нет
Заполнение пропущенных сэмплов тишиной            : Да
Удаление блоков с тишиной в начале и конце        : Нет
При вычислениях CRC использовались нулевые сэмплы : Да
Интерфейс                                         : Установленный внешний ASPI-интерфейс
Выходной формат : Внутренние WAV-операции
Формат сэмплов  : 44.100 Гц; 16 бит; стерео
TOC извлечённого CD
     Трек |   Старт  | Длительность | Начальный сектор | Конечный сектор
    ---------------------------------------------------------------------
       1  |  0:00.00 |    3:14.17   |           0      |      14566
       2  |  3:14.17 |    3:15.62   |       14567      |      29253
       3  |  6:30.04 |    2:38.09   |       29254      |      41112
       4  |  9:08.13 |    4:47.65   |       41113      |      62702
       5  | 13:56.03 |    3:31.03   |       62703      |      78530
       6  | 17:27.06 |    3:48.35   |       78531      |      95665
       7  | 21:15.41 |    2:02.34   |       95666      |     104849
       8  | 23:18.00 |    3:37.65   |      104850      |     121189
       9  | 26:55.65 |    2:01.02   |      121190      |     130266
      10  | 28:56.67 |    4:28.22   |      130267      |     150388
      11  | 33:25.14 |    3:20.50   |      150389      |     165438
      12  | 36:45.64 |    2:37.29   |      165439      |     177242
      13  | 39:23.18 |    2:59.68   |      177243      |     190735
      14  | 42:23.11 |    5:55.01   |      190736      |     217361
      15  | 48:18.12 |    3:11.33   |      217362      |     231719
      16  | 51:29.45 |    3:44.25   |      231720      |     248544
      17  | 55:13.70 |    2:39.32   |      248545      |     260501
      18  | 57:53.27 |    2:27.27   |      260502      |     271553
      19  | 60:20.54 |    1:24.02   |      271554      |     277855
      20  | 61:44.56 |    3:22.57   |      277856      |     293062
Характеристики диапазона извлечения и сообщения об ошибках
Выбранный диапазон
     Имя файла D:\DVD\Раздачи торрентов\Instrumental Gold Collection - World's Best Hits\Том 1\CD2\Various - Instrumental Gold Collection - World's Best Hits, Volume 1 (disc 2).wav
     Пиковый уровень 98.8 %
     Качество диапазона 99.9 %
     CRC копии 52E80265
     Копирование... OK
Ошибок не произошло
Конец отчёта

Содержание индексной карты *cue

Код:
REM GENRE Instrumental
REM DATE 1995
REM DISCID 0C0F4314
REM COMMENT "ExactAudioCopy v0.99pb5"
PERFORMER "Various"
TITLE "Instrumental Gold Collection - World's Best Hits, Volume 1 (disc 2)"
FILE "Various - Instrumental Gold Collection - World's Best Hits, Volume 1 (disc 2).ape" WAVE
  TRACK 01 AUDIO
    TITLE "La Cumparsita"
    PERFORMER "R. Clayderman"
    INDEX 01 00:00:00
  TRACK 02 AUDIO
    TITLE "El Condor Pasa"
    PERFORMER "P. Weekers"
    INDEX 00 03:13:18
    INDEX 01 03:14:17
  TRACK 03 AUDIO
    TITLE "Toccata"
    PERFORMER "P. Mauriat"
    INDEX 00 06:29:05
    INDEX 01 06:30:04
  TRACK 04 AUDIO
    TITLE "Moonflower"
    PERFORMER "Santana"
    INDEX 00 09:07:15
    INDEX 01 09:08:13
  TRACK 05 AUDIO
    TITLE "Magnetic Fields part5"
    PERFORMER "J.M. Jarre"
    INDEX 00 13:55:04
    INDEX 01 13:56:03
  TRACK 06 AUDIO
    TITLE "Space Opera part3"
    PERFORMER "D. Marouani"
    INDEX 00 17:26:07
    INDEX 01 17:27:06
  TRACK 07 AUDIO
    TITLE "Rap City"
    PERFORMER "The Ventures"
    INDEX 00 21:14:42
    INDEX 01 21:15:41
  TRACK 08 AUDIO
    TITLE "Song of Ocarina"
    PERFORMER "Ocarina"
    INDEX 00 23:17:01
    INDEX 01 23:18:00
  TRACK 09 AUDIO
    TITLE "Man of Mistery"
    PERFORMER "The Shadows"
    INDEX 00 26:54:66
    INDEX 01 26:55:65
  TRACK 10 AUDIO
    TITLE "Lilly Was Here"
    PERFORMER "C. Dulfer"
    INDEX 00 28:55:68
    INDEX 01 28:56:67
  TRACK 11 AUDIO
    TITLE "Emanuelle"
    PERFORMER "F. Papetti"
    INDEX 00 33:24:15
    INDEX 01 33:25:14
  TRACK 12 AUDIO
    TITLE "Ballade Pour Adeline"
    PERFORMER "F. Duval"
    INDEX 00 36:44:65
    INDEX 01 36:45:64
  TRACK 13 AUDIO
    TITLE "Pop Corn"
    PERFORMER "E. Simoni"
    INDEX 00 39:22:19
    INDEX 01 39:23:18
  TRACK 14 AUDIO
    TITLE "La Petite Fille De La Mer"
    PERFORMER "Vangelis"
    INDEX 00 42:22:12
    INDEX 01 42:23:11
  TRACK 15 AUDIO
    TITLE "Besame Mucho"
    PERFORMER "F. Pourcell"
    INDEX 00 48:17:13
    INDEX 01 48:18:12
  TRACK 16 AUDIO
    TITLE "Bouree"
    PERFORMER "Jethro Tull"
    INDEX 00 51:28:46
    INDEX 01 51:29:45
  TRACK 17 AUDIO
    TITLE "Addio a Cheyene"
    PERFORMER "E. Morricone"
    INDEX 00 55:12:71
    INDEX 01 55:13:70
  TRACK 18 AUDIO
    TITLE "Fur Elise"
    PERFORMER "R. Clayderman"
    INDEX 00 57:52:28
    INDEX 01 57:53:27
  TRACK 19 AUDIO
    TITLE "Badinerie"
    PERFORMER "P. Mauriat"
    INDEX 00 60:19:55
    INDEX 01 60:20:54
  TRACK 20 AUDIO
    TITLE "Ave Maria"
    PERFORMER "C. Atkins"
    INDEX 00 61:43:57
    INDEX 01 61:44:56
-- --

_________________
Other forum [Profile] [PM]
Display posts from previous:    
Reply to topic

The time now is: Today 15:07

All times are GMT + 3 Hours



You cannot post new topics in this forum
You cannot reply to topics in this forum
You cannot edit your posts in this forum
You cannot delete your posts in this forum
You cannot vote in polls in this forum
You cannot attach files in this forum
You cannot download files in this forum