Today is a free download without charge Download

(Instrumental) VA - Instrumental Gold Collection - World's Best Hits, Volume 2 (2CD) - 2001, APE (image + .cue), lossless

Reply to topic
 
Author
Message

sergej644 ®

Gender:

Longevity: 6 years 9 months

Posts: 626

Торрент-статистика

Post 07-Dec-2012 10:00

[Quote]

-VA - Gold Instrumental Collection Vol.2 (2CD)-
Страна: All World
Жанр: Instrumental
Год выпуска: 2001
Формат: APE (image + .cue)
Битрейт аудио: lossless
Продолжительность: 02:24:26
-Трэклист:-

CD 1

продолжительность 01:11:45
01.Paul Mauriat - Alouette (02:14)
02.Fausto papetti - Sleepy Shores (02:59)
03.Francis Goya - Concerto pour une voix (02:58)
04.Armik - Dancing Shadow (04:48)
05.Alan Parsons - Mammagamma (03:39)
06.Paris-france-tranzit - Voice of jupiter (04:23)
07.The Shadows - Apache (03:04)
08.Vanessa-Mae - Can Can (03:44)
09.The Ventures - The House of the rising Sun (03:03)
10.Max Greger - Two Guitars (02:57)
11.Richard Clauderman - Dolannes melody (03:27)
12.Glenn Miller Project - Moonlight serenade (00:47)
13.Paul Mauriat - Bridge over troubled water (03:09)
14.Santana - Samba Parti (04:47)
15.Kenny Ball - Midnight in Moscow (03:04)
16.Squirrel Nut Zippers - Flight of the passing fancy (03:56)
17.Aristakis - The Etertainer (02:37)
18.Stephane Grappelli - Tears (05:52)
19.Louis Clarc & R.P.O. - Pachelbel's canon (03:35)
20.Dave Brubeck - Thank You (Dziekuje) (03:38)
21.Exeption - Air (02:53)

Лог создания рипа

Код:
Exact Audio Copy V0.99 prebeta 5 from 4. May 2009
Отчёт EAC об извлечении, выполненном 22. августа 2009, 16:02
Various / Gold Instrumental Collection Vol.2 - CD1
Дисковод: PIONEER DVD-RW  DVR-216D   Adapter: 0  ID: 0
Режим чтения                 : Достоверность
Использование точного потока : Да
Отключение кэша аудио        : Да
Использование указателей C2  : Нет
Коррекция смещения при чтении                     : 96
Способность читать области Lead-in и Lead-out     : Нет
Заполнение пропущенных сэмплов тишиной            : Да
Удаление блоков с тишиной в начале и конце        : Нет
При вычислениях CRC использовались нулевые сэмплы : Да
Интерфейс                                         : Установленный внешний ASPI-интерфейс
Выходной формат : Внутренние WAV-операции
Формат сэмплов  : 44.100 Гц; 16 бит; стерео
TOC извлечённого CD
     Трек |   Старт  | Длительность | Начальный сектор | Конечный сектор
    ---------------------------------------------------------------------
       1  |  0:00.00 |    2:14.73   |           0      |      10122
       2  |  2:14.73 |    2:59.44   |       10123      |      23591
       3  |  5:14.42 |    2:58.56   |       23592      |      36997
       4  |  8:13.23 |    4:48.14   |       36998      |      58611
       5  | 13:01.37 |    3:39.55   |       58612      |      75091
       6  | 16:41.17 |    4:23.54   |       75092      |      94870
       7  | 21:04.71 |    3:04.27   |       94871      |     108697
       8  | 24:09.23 |    3:44.50   |      108698      |     125547
       9  | 27:53.73 |    3:03.25   |      125548      |     139297
      10  | 30:57.23 |    2:57.31   |      139298      |     152603
      11  | 33:54.54 |    3:27.27   |      152604      |     168155
      12  | 37:22.06 |    0:47.63   |      168156      |     171743
      13  | 38:09.69 |    3:09.03   |      171744      |     185921
      14  | 41:18.72 |    4:47.42   |      185922      |     207488
      15  | 46:06.39 |    3:04.59   |      207489      |     221347
      16  | 49:11.23 |    3:56.22   |      221348      |     239069
      17  | 53:07.45 |    2:37.39   |      239070      |     250883
      18  | 55:45.09 |    5:52.67   |      250884      |     277350
      19  | 61:38.01 |    3:35.33   |      277351      |     293508
      20  | 65:13.34 |    3:38.40   |      293509      |     309898
      21  | 68:51.74 |    2:53.51   |      309899      |     322924
Характеристики диапазона извлечения и сообщения об ошибках
Выбранный диапазон
     Имя файла D:\DVD\Раздачи торрентов\Instrumental Gold Collection - World's Best Hits\Том 2\CD 1\Various - Gold Instrumental Collection Vol.2 - CD1.wav
     Пиковый уровень 99.9 %
     Качество диапазона 99.9 %
     CRC копии D4741765
     Копирование... OK
Ошибок не произошло
Конец отчёта

Содержание индексной карты *cue

Код:
REM GENRE Instrumental
REM DATE 1995
REM DISCID 2D10D115
REM COMMENT "ExactAudioCopy v0.99pb5"
PERFORMER "Various"
TITLE "Gold Instrumental Collection Vol.2 - CD1"
FILE "Various - Gold Instrumental Collection Vol.2 - CD1.ape" WAVE
  TRACK 01 AUDIO
    TITLE "Alouette"
    PERFORMER "Paul Mauriat"
    INDEX 01 00:00:00
  TRACK 02 AUDIO
    TITLE "Sleepy Shores"
    PERFORMER "Fausto papetti"
    INDEX 00 02:10:73
    INDEX 01 02:14:73
  TRACK 03 AUDIO
    TITLE "Concerto pour une voix"
    PERFORMER "Francis Goya"
    INDEX 00 05:10:43
    INDEX 01 05:14:42
  TRACK 04 AUDIO
    TITLE "Dancing Shadow"
    PERFORMER "Armik"
    INDEX 00 08:09:24
    INDEX 01 08:13:23
  TRACK 05 AUDIO
    TITLE "Mammagamma"
    PERFORMER "Alan Parsons"
    INDEX 00 12:57:38
    INDEX 01 13:01:37
  TRACK 06 AUDIO
    TITLE "Voice of jupiter"
    PERFORMER "Paris-france-tranzit"
    INDEX 00 16:37:18
    INDEX 01 16:41:17
  TRACK 07 AUDIO
    TITLE "Apache"
    PERFORMER "The Shadows"
    INDEX 00 21:00:71
    INDEX 01 21:04:71
  TRACK 08 AUDIO
    TITLE "Can Can"
    PERFORMER "Vanessa-Mae"
    INDEX 00 24:05:24
    INDEX 01 24:09:23
  TRACK 09 AUDIO
    TITLE "The House of the rising Sun"
    PERFORMER "The Ventures"
    INDEX 00 27:49:74
    INDEX 01 27:53:73
  TRACK 10 AUDIO
    TITLE "Two Guitars"
    PERFORMER "Max Greger"
    INDEX 00 30:53:23
    INDEX 01 30:57:23
  TRACK 11 AUDIO
    TITLE "Dolannes melody"
    PERFORMER "Richard Clauderman"
    INDEX 00 33:50:55
    INDEX 01 33:54:54
  TRACK 12 AUDIO
    TITLE "Moonlight serenade"
    PERFORMER "Glenn Miller Project"
    INDEX 00 37:19:06
    INDEX 01 37:22:06
  TRACK 13 AUDIO
    TITLE "Bridge over troubled water"
    PERFORMER "Paul Mauriat"
    INDEX 00 38:05:69
    INDEX 01 38:09:69
  TRACK 14 AUDIO
    TITLE "Samba Parti"
    PERFORMER "Santana"
    INDEX 00 41:14:73
    INDEX 01 41:18:72
  TRACK 15 AUDIO
    TITLE "Midnight in Moscow"
    PERFORMER "Kenny Ball"
    INDEX 00 46:02:40
    INDEX 01 46:06:39
  TRACK 16 AUDIO
    TITLE "Flight of the passing fancy"
    PERFORMER "Squirrel Nut Zippers"
    INDEX 00 49:07:23
    INDEX 01 49:11:23
  TRACK 17 AUDIO
    TITLE "The Etertainer"
    PERFORMER "Aristakis"
    INDEX 00 53:03:46
    INDEX 01 53:07:45
  TRACK 18 AUDIO
    TITLE "Tears"
    PERFORMER "Stephane Grappelli"
    INDEX 00 55:41:10
    INDEX 01 55:45:09
  TRACK 19 AUDIO
    TITLE "Pachelbel's canon"
    PERFORMER "Louis Clarc & R.P.O."
    INDEX 00 61:34:02
    INDEX 01 61:38:01
  TRACK 20 AUDIO
    TITLE "Thank You (Dziekuje)"
    PERFORMER "Dave Brubeck"
    INDEX 00 65:09:35
    INDEX 01 65:13:34
  TRACK 21 AUDIO
    TITLE "Air"
    PERFORMER "Exeption"
    INDEX 00 68:48:00
    INDEX 01 68:51:74

CD 2

продолжительность: 01:12:41
01.Vanessa-Mae - Storm (03:44)
02.Armik - Gipsy Flame (04:53)
03.Paul Mauriat - Minuetto (02:24)
04.Pan Dana - The Good, The Bad and The Ugly (04:10)
05.Frank Duval & Orchestra - Sorry to leave You (02:06)
06.Paruis-Frnce-Tranzit - Souvenir From Rio (04:21)
07.Robert Miles - Children (06:37)
08.Squirrel Nut Zippers - Interlocutor (02:47)
09.The Ventures - Vibrations (03:07)
10.Fausto Papetti - Theme From Paradise (03:17)
11.Richard Clauderman - Aline (02:33)
12.Ennino Morricone - Le Vent, Le Cri (05:18)
13.Michel Legrand - Paraplues De Sherbourg (02:50)
14.Paul Mauriat - Un Homme Et Une Femme (02:27)
15.G. Sviridov - Waltz (03:58)
16.Space - Secret Dreams (04:30)
17.Rithie Blackmore - Ministrel Hall (02:38)
18.Richard Clauderman - Moonlight Sonata (03:15)
19.Dave Brubeck - Sixth Sense (07:35)

Лог создания рипа

Код:
Exact Audio Copy V0.99 prebeta 5 from 4. May 2009
Отчёт EAC об извлечении, выполненном 22. августа 2009, 17:06
Various / Gold Instrumental Collection Vol.2 - CD2
Дисковод: PIONEER DVD-RW  DVR-216D   Adapter: 0  ID: 0
Режим чтения                 : Достоверность
Использование точного потока : Да
Отключение кэша аудио        : Да
Использование указателей C2  : Нет
Коррекция смещения при чтении                     : 96
Способность читать области Lead-in и Lead-out     : Нет
Заполнение пропущенных сэмплов тишиной            : Да
Удаление блоков с тишиной в начале и конце        : Нет
При вычислениях CRC использовались нулевые сэмплы : Да
Интерфейс                                         : Установленный внешний ASPI-интерфейс
Выходной формат : Внутренние WAV-операции
Формат сэмплов  : 44.100 Гц; 16 бит; стерео
TOC извлечённого CD
     Трек |   Старт  | Длительность | Начальный сектор | Конечный сектор
    ---------------------------------------------------------------------
       1  |  0:00.00 |    3:44.38   |           0      |      16837
       2  |  3:44.38 |    4:53.39   |       16838      |      38851
       3  |  8:38.02 |    2:24.31   |       38852      |      49682
       4  | 11:02.33 |    4:10.44   |       49683      |      68476
       5  | 15:13.02 |    2:06.32   |       68477      |      77958
       6  | 17:19.34 |    4:21.29   |       77959      |      97562
       7  | 21:40.63 |    6:37.51   |       97563      |     127388
       8  | 28:18.39 |    2:47.40   |      127389      |     139953
       9  | 31:06.04 |    3:07.43   |      139954      |     154021
      10  | 34:13.47 |    3:17.65   |      154022      |     168861
      11  | 37:31.37 |    2:33.63   |      168862      |     180399
      12  | 40:05.25 |    5:18.36   |      180400      |     204285
      13  | 45:23.61 |    2:50.70   |      204286      |     217105
      14  | 48:14.56 |    2:27.27   |      217106      |     228157
      15  | 50:42.08 |    3:58.35   |      228158      |     246042
      16  | 54:40.43 |    4:30.69   |      246043      |     266361
      17  | 59:11.37 |    2:38.71   |      266362      |     278282
      18  | 61:50.33 |    3:15.44   |      278283      |     292951
      19  | 65:06.02 |    7:35.02   |      292952      |     327078
Характеристики диапазона извлечения и сообщения об ошибках
Выбранный диапазон
     Имя файла D:\DVD\Раздачи торрентов\Instrumental Gold Collection - World's Best Hits\Том 2\CD 2\Various - Gold Instrumental Collection Vol.2 - CD2.wav
     Пиковый уровень 100.0 %
     Качество диапазона 99.9 %
     CRC копии 51683DC7
     Копирование... OK
Ошибок не произошло
Конец отчёта

Содержание индексной карты *cue

Код:
REM GENRE Instrumental
REM DATE 1995
REM DISCID F6110913
REM COMMENT "ExactAudioCopy v0.99pb5"
PERFORMER "Various"
TITLE "Gold Instrumental Collection Vol.2 - CD2"
FILE "Various - Gold Instrumental Collection Vol.2 - CD2.ape" WAVE
  TRACK 01 AUDIO
    TITLE "Storm"
    PERFORMER "Vanessa-Mae"
    INDEX 01 00:00:00
  TRACK 02 AUDIO
    TITLE "Gipsy Flame"
    PERFORMER "Armik"
    INDEX 00 03:42:39
    INDEX 01 03:44:38
  TRACK 03 AUDIO
    TITLE "Minuetto"
    PERFORMER "Paul Mauriat"
    INDEX 00 08:36:02
    INDEX 01 08:38:02
  TRACK 04 AUDIO
    TITLE "The Good, The Bad and The Ugly"
    PERFORMER "Pan Dana"
    INDEX 00 11:00:33
    INDEX 01 11:02:33
  TRACK 05 AUDIO
    TITLE "Sorry to leave You"
    PERFORMER "Frank Duval & Orchestra"
    INDEX 00 15:11:03
    INDEX 01 15:13:02
  TRACK 06 AUDIO
    TITLE "Souvenir From Rio"
    PERFORMER "Paruis-Frnce-Tranzit"
    INDEX 00 17:17:34
    INDEX 01 17:19:34
  TRACK 07 AUDIO
    TITLE "Children"
    PERFORMER "Robert Miles"
    INDEX 00 21:38:63
    INDEX 01 21:40:63
  TRACK 08 AUDIO
    TITLE "Interlocutor"
    PERFORMER "Squirrel Nut Zippers"
    INDEX 00 28:16:40
    INDEX 01 28:18:39
  TRACK 09 AUDIO
    TITLE "Vibrations"
    PERFORMER "The Ventures"
    INDEX 00 31:04:04
    INDEX 01 31:06:04
  TRACK 10 AUDIO
    TITLE "Theme From Paradise"
    PERFORMER "Fausto Papetti"
    INDEX 00 34:11:48
    INDEX 01 34:13:47
  TRACK 11 AUDIO
    TITLE "Aline"
    PERFORMER "Richard Clauderman"
    INDEX 00 37:29:38
    INDEX 01 37:31:37
  TRACK 12 AUDIO
    TITLE "Le Vent, Le Cri"
    PERFORMER "Ennino Morricone"
    INDEX 00 40:03:25
    INDEX 01 40:05:25
  TRACK 13 AUDIO
    TITLE "Paraplues De Sherbourg"
    PERFORMER "Michel Legrand"
    INDEX 00 45:21:62
    INDEX 01 45:23:61
  TRACK 14 AUDIO
    TITLE "Un Homme Et Une Femme"
    PERFORMER "Paul Mauriat"
    INDEX 00 48:12:57
    INDEX 01 48:14:56
  TRACK 15 AUDIO
    TITLE "Waltz"
    PERFORMER "G. Sviridov"
    INDEX 00 50:40:09
    INDEX 01 50:42:08
  TRACK 16 AUDIO
    TITLE "Secret Dreams"
    PERFORMER "Space"
    INDEX 00 54:38:44
    INDEX 01 54:40:43
  TRACK 17 AUDIO
    TITLE "Ministrel Hall"
    PERFORMER "Rithie Blackmore"
    INDEX 00 59:09:38
    INDEX 01 59:11:37
  TRACK 18 AUDIO
    TITLE "Moonlight Sonata"
    PERFORMER "Richard Clauderman"
    INDEX 00 61:48:34
    INDEX 01 61:50:33
  TRACK 19 AUDIO
    TITLE "Sixth Sense"
    PERFORMER "Dave Brubeck"
    INDEX 00 65:04:02
    INDEX 01 65:06:02
-- --

_________________
Other forum [Profile] [PM]
Display posts from previous:    
Reply to topic

The time now is: Today 19:44

All times are GMT + 3 Hours



You cannot post new topics in this forum
You cannot reply to topics in this forum
You cannot edit your posts in this forum
You cannot delete your posts in this forum
You cannot vote in polls in this forum
You cannot attach files in this forum
You cannot download files in this forum