Today is a free download without charge Download

(Instrumental) VA - Instrumental Gold Collection - World's Best Hits, Volume 5 (2CD) - 2001, APE (image + .cue), lossless

Reply to topic
 
Author
Message

sergej644 ®

Gender:

Longevity: 6 years 9 months

Posts: 626

Торрент-статистика

Post 07-Dec-2012 10:06

[Quote]

-VA - Instrumental Gold Collection, Volume 5 (2CD)-
Страна: All World
Жанр: Instrumental
Год выпуска: 2001
Формат: APE (image + .cue)
Битрейт аудио: lossless
Продолжительность: 02:34:34
-Трэклист:-

CD 1

продолжительность: 01:17:36
01.Rondo Veneziano - Rondo Veneziano (03:21)
02.Ottmar Liebert - Havana Club (05:15)
03.Acoustic Alchemy - The Netting Hill Two Step (03:44)
04.Frank Duval & Orchestra - Song of the Ben (03:39)
05.Jan Hammar - Tubbs And Valerie (03:31)
06.Rick Wakeman - Gemini (02:51)
07.Piano Fantasia - Song for Denise (04:25)
08.Elton John - Cheldorado (04:26)
09.Shahin & Sepehr - One Thousand & One Nights (04:26)
10.Blonker - Classical Dream (03:36)
11.Elo - Another Heart Breacks (03:45)
12.Dudley - Moments in Love (03:07)
13.Guru Josh - Infinity (03:57)
14.Carlos - The Simarilla (03:02)
15.Vladimir Cosma - Vladimir Cosma (03:41)
16.Miami Sound Machine - All Because of You... (02:52)
17.Sting - Ocean Waltz (03:05)
18.Nino Rota - Theme Godfader ][ (03:23)
19.Andreas Vollenweider - Trilogy (03:10)
20.Monika Ramos - Moat (03:58)
21.James Last - Saturday Night Fever (04:12)

Лог создания рипа

Код:
Exact Audio Copy V0.99 prebeta 5 from 4. May 2009
Отчёт EAC об извлечении, выполненном 22. августа 2009, 23:25
Various / Instrumental Gold Collection, Volume 5 (disc 1)
Дисковод: PIONEER DVD-RW  DVR-216D   Adapter: 0  ID: 0
Режим чтения                 : Достоверность
Использование точного потока : Да
Отключение кэша аудио        : Да
Использование указателей C2  : Нет
Коррекция смещения при чтении                     : 96
Способность читать области Lead-in и Lead-out     : Нет
Заполнение пропущенных сэмплов тишиной            : Да
Удаление блоков с тишиной в начале и конце        : Нет
При вычислениях CRC использовались нулевые сэмплы : Да
Интерфейс                                         : Установленный внешний ASPI-интерфейс
Выходной формат : Внутренние WAV-операции
Формат сэмплов  : 44.100 Гц; 16 бит; стерео
TOC извлечённого CD
     Трек |   Старт  | Длительность | Начальный сектор | Конечный сектор
    ---------------------------------------------------------------------
       1  |  0:00.00 |    3:21.48   |           0      |      15122
       2  |  3:21.48 |    5:15.10   |       15123      |      38757
       3  |  8:36.58 |    3:44.19   |       38758      |      55576
       4  | 12:21.02 |    3:39.53   |       55577      |      72054
       5  | 16:00.55 |    3:31.03   |       72055      |      87882
       6  | 19:31.58 |    2:51.57   |       87883      |     100764
       7  | 22:23.40 |    4:25.61   |      100765      |     120700
       8  | 26:49.26 |    4:26.02   |      120701      |     140652
       9  | 31:15.28 |    4:26.63   |      140653      |     160665
      10  | 35:42.16 |    3:36.19   |      160666      |     176884
      11  | 39:18.35 |    3:45.15   |      176885      |     193774
      12  | 43:03.50 |    3:07.71   |      193775      |     207870
      13  | 46:11.46 |    3:57.73   |      207871      |     225718
      14  | 50:09.44 |    3:02.22   |      225719      |     239390
      15  | 53:11.66 |    3:41.30   |      239391      |     255995
      16  | 56:53.21 |    2:52.44   |      255996      |     268939
      17  | 59:45.65 |    3:05.63   |      268940      |     282877
      18  | 62:51.53 |    3:23.28   |      282878      |     298130
      19  | 66:15.06 |    3:10.57   |      298131      |     312437
      20  | 69:25.63 |    3:58.09   |      312438      |     330296
      21  | 73:23.72 |    4:12.65   |      330297      |     349261
Характеристики диапазона извлечения и сообщения об ошибках
Выбранный диапазон
     Имя файла D:\DVD\Раздачи торрентов\Instrumental Gold Collection - World's Best Hits\Том 5\CD 1\Various - Instrumental Gold Collection, Volume 5 (disc 1).wav
     Пиковый уровень 98.9 %
     Качество диапазона 99.9 %
     CRC копии 28506B42
     Копирование... OK
Ошибок не произошло
Конец отчёта

Содержание индексной карты *cue

Код:
REM GENRE Instrumental
REM DATE 1997
REM DISCID 31123015
REM COMMENT "ExactAudioCopy v0.99pb5"
PERFORMER "Various"
TITLE "Instrumental Gold Collection, Volume 5 (disc 1)"
FILE "Various - Instrumental Gold Collection, Volume 5 (disc 1).ape" WAVE
  TRACK 01 AUDIO
    TITLE "Rondo Veneziano"
    PERFORMER "Rondo Veneziano"
    INDEX 01 00:00:00
  TRACK 02 AUDIO
    TITLE "Havana Club"
    PERFORMER "Ottmar Liebert"
    INDEX 01 03:21:48
  TRACK 03 AUDIO
    TITLE "The Netting Hill Two Step"
    PERFORMER "Acoustic Alchemy"
    INDEX 01 08:36:58
  TRACK 04 AUDIO
    TITLE "Song of the Ben"
    PERFORMER "Frank Duval & Orchestra"
    INDEX 01 12:21:02
  TRACK 05 AUDIO
    TITLE "Tubbs And Valerie"
    PERFORMER "Jan Hammar"
    INDEX 01 16:00:55
  TRACK 06 AUDIO
    TITLE "Gemini"
    PERFORMER "Rick Wakeman"
    INDEX 01 19:31:58
  TRACK 07 AUDIO
    TITLE "Song for Denise"
    PERFORMER "Piano Fantasia"
    INDEX 01 22:23:40
  TRACK 08 AUDIO
    TITLE "Cheldorado"
    PERFORMER "Elton John"
    INDEX 01 26:49:26
  TRACK 09 AUDIO
    TITLE "One Thousand & One Nights"
    PERFORMER "Shahin & Sepehr"
    INDEX 01 31:15:28
  TRACK 10 AUDIO
    TITLE "Classical Dream"
    PERFORMER "Blonker"
    INDEX 01 35:42:16
  TRACK 11 AUDIO
    TITLE "Another Heart Breacks"
    PERFORMER "Elo"
    INDEX 01 39:18:35
  TRACK 12 AUDIO
    TITLE "Moments in Love"
    PERFORMER "Dudley"
    INDEX 01 43:03:50
  TRACK 13 AUDIO
    TITLE "Infinity"
    PERFORMER "Guru Josh"
    INDEX 01 46:11:46
  TRACK 14 AUDIO
    TITLE "The Simarilla"
    PERFORMER "Carlos"
    INDEX 01 50:09:44
  TRACK 15 AUDIO
    TITLE "Vladimir Cosma"
    PERFORMER "Vladimir Cosma"
    INDEX 01 53:11:66
  TRACK 16 AUDIO
    TITLE "All Because of You..."
    PERFORMER "Miami Sound Machine"
    INDEX 01 56:53:21
  TRACK 17 AUDIO
    TITLE "Ocean Waltz"
    PERFORMER "Sting"
    INDEX 01 59:45:65
  TRACK 18 AUDIO
    TITLE "Theme Godfader ]["
    PERFORMER "Nino Rota"
    INDEX 01 62:51:53
  TRACK 19 AUDIO
    TITLE "Trilogy"
    PERFORMER "Andreas Vollenweider"
    INDEX 01 66:15:06
  TRACK 20 AUDIO
    TITLE "Moat"
    PERFORMER "Monika Ramos"
    INDEX 01 69:25:63
  TRACK 21 AUDIO
    TITLE "Saturday Night Fever"
    PERFORMER "James Last"
    INDEX 01 73:23:72

CD 2

продолжительность: 01:16:58
01.Инструментальная музыка - Paradise / Love The Me (04:08)
02.Инструментальная музыка - Gipsy Kings / Love & Liberte (03:52)
03.Инструментальная музыка - Gary Moore / Spanish Guitar (03:43)
04.Инструментальная музыка - Paul Mauriat / Atlantis (02:53)
05.Инструментальная музыка - Hank Marvin & The Shadows / Kontiki (01:50)
06.Инструментальная музыка - Max Greger / Alla Figaro (03:18)
07.Инструментальная музыка - Rick Wakeman / Isabella (03:26)
08.Инструментальная музыка - Brian McKnight / Color Of The Night (02:57)
09.Инструментальная музыка - Richard Clayderman / Cool Breeze (03:45)
10.Инструментальная музыка - Jan Hammer / Crockett's Theme (03:28)
11.Инструментальная музыка - Rondo Veneziano / La Serenissima (02:10)
12.Инструментальная музыка - Barcode Brothers / Flute (04:44)
13.Инструментальная музыка - Ottmar Liebert / 2 The Night (04:14)
14.Инструментальная музыка - Shanin & Sepehr / Tears Of Fire (04:00)
15.Инструментальная музыка - Ryuchi Sakamoto / Merry Christmas (04:23)
16.Инструментальная музыка - Fausto Papetti / Passion Theme (04:42)
17.Инструментальная музыка - Acoustic Alchemy / Jamaica Heart Beat (05:26)
18.Инструментальная музыка - Martin Bottcher / Moonlight Guitar (02:53)
19.Инструментальная музыка - Christopher Dean / Scherzo (04:02)
20.Инструментальная музыка - Anthony Ventura / La paloma (02:28)
21.Инструментальная музыка - Blonker / Amazonas (04:26)

Лог создания рипа

Код:
Отчёт EAC об извлечении, выполненном 22. августа 2009, 23:56
Инструментальная музыка / Лучшие мировые хиты Vol 5 CD2
Дисковод: PIONEER DVD-RW  DVR-216D   Adapter: 0  ID: 0
Режим чтения                 : Достоверность
Использование точного потока : Да
Отключение кэша аудио        : Да
Использование указателей C2  : Нет
Коррекция смещения при чтении                     : 96
Способность читать области Lead-in и Lead-out     : Нет
Заполнение пропущенных сэмплов тишиной            : Да
Удаление блоков с тишиной в начале и конце        : Нет
При вычислениях CRC использовались нулевые сэмплы : Да
Интерфейс                                         : Установленный внешний ASPI-интерфейс
Выходной формат : Внутренние WAV-операции
Формат сэмплов  : 44.100 Гц; 16 бит; стерео
TOC извлечённого CD
     Трек |   Старт  | Длительность | Начальный сектор | Конечный сектор
    ---------------------------------------------------------------------
       1  |  0:00.00 |    4:08.21   |           0      |      18620
       2  |  4:08.21 |    3:52.47   |       18621      |      36067
       3  |  8:00.68 |    3:43.06   |       36068      |      52798
       4  | 11:43.74 |    2:53.25   |       52799      |      65798
       5  | 14:37.24 |    1:50.32   |       65799      |      74080
       6  | 16:27.56 |    3:18.66   |       74081      |      88996
       7  | 19:46.47 |    3:26.71   |       88997      |     104517
       8  | 23:13.43 |    2:57.61   |      104518      |     117853
       9  | 26:11.29 |    3:45.01   |      117854      |     134729
      10  | 29:56.30 |    3:28.53   |      134730      |     150382
      11  | 33:25.08 |    2:10.18   |      150383      |     160150
      12  | 35:35.26 |    4:44.07   |      160151      |     181457
      13  | 40:19.33 |    4:14.72   |      181458      |     200579
      14  | 44:34.30 |    4:00.34   |      200580      |     218613
      15  | 48:34.64 |    4:23.34   |      218614      |     238372
      16  | 52:58.23 |    4:42.64   |      238373      |     259586
      17  | 57:41.12 |    5:26.16   |      259587      |     284052
      18  | 63:07.28 |    2:53.48   |      284053      |     297075
      19  | 66:01.01 |    4:02.29   |      297076      |     315254
      20  | 70:03.30 |    2:28.02   |      315255      |     326356
      21  | 72:31.32 |    4:26.47   |      326357      |     346353
Характеристики диапазона извлечения и сообщения об ошибках
Выбранный диапазон
     Имя файла D:\DVD\Раздачи торрентов\Instrumental Gold Collection - World's Best Hits\Том 5\CD 2\Инструментальная музыка - Лучшие мировые хиты Vol 5 CD2.wav
     Пиковый уровень 100.0 %
     Качество диапазона 100.0 %
     CRC копии 1529410D
     Копирование... OK
Ошибок не произошло
Конец отчёта

Содержание индексной карты *cue

Код:
REM GENRE Instrumental
REM DATE 1997
REM DISCID 4F120A15
REM COMMENT "ExactAudioCopy v0.99pb5"
PERFORMER "Инструментальная музыка"
TITLE "Лучшие мировые хиты Vol 5 CD2"
FILE "Инструментальная музыка - Лучшие мировые хиты Vol 5 CD2.ape" WAVE
  TRACK 01 AUDIO
    TITLE "Paradise / Love The Me"
    PERFORMER "Инструментальная музыка"
    INDEX 01 00:00:00
  TRACK 02 AUDIO
    TITLE "Gipsy Kings / Love & Liberte"
    PERFORMER "Инструментальная музыка"
    INDEX 01 04:08:21
  TRACK 03 AUDIO
    TITLE "Gary Moore / Spanish Guitar"
    PERFORMER "Инструментальная музыка"
    INDEX 01 08:00:68
  TRACK 04 AUDIO
    TITLE "Paul Mauriat / Atlantis"
    PERFORMER "Инструментальная музыка"
    INDEX 01 11:43:74
  TRACK 05 AUDIO
    TITLE "Hank Marvin & The Shadows / Kontiki"
    PERFORMER "Инструментальная музыка"
    INDEX 01 14:37:24
  TRACK 06 AUDIO
    TITLE "Max Greger / Alla Figaro"
    PERFORMER "Инструментальная музыка"
    INDEX 01 16:27:56
  TRACK 07 AUDIO
    TITLE "Rick Wakeman / Isabella"
    PERFORMER "Инструментальная музыка"
    INDEX 01 19:46:47
  TRACK 08 AUDIO
    TITLE "Brian McKnight / Color Of The Night"
    PERFORMER "Инструментальная музыка"
    INDEX 01 23:13:43
  TRACK 09 AUDIO
    TITLE "Richard Clayderman / Cool Breeze"
    PERFORMER "Инструментальная музыка"
    INDEX 01 26:11:29
  TRACK 10 AUDIO
    TITLE "Jan Hammer / Crockett's Theme"
    PERFORMER "Инструментальная музыка"
    INDEX 01 29:56:30
  TRACK 11 AUDIO
    TITLE "Rondo Veneziano / La Serenissima"
    PERFORMER "Инструментальная музыка"
    INDEX 01 33:25:08
  TRACK 12 AUDIO
    TITLE "Barcode Brothers / Flute"
    PERFORMER "Инструментальная музыка"
    INDEX 01 35:35:26
  TRACK 13 AUDIO
    TITLE "Ottmar Liebert / 2 The Night"
    PERFORMER "Инструментальная музыка"
    INDEX 01 40:19:33
  TRACK 14 AUDIO
    TITLE "Shanin & Sepehr / Tears Of Fire"
    PERFORMER "Инструментальная музыка"
    INDEX 01 44:34:30
  TRACK 15 AUDIO
    TITLE "Ryuchi Sakamoto / Merry Christmas"
    PERFORMER "Инструментальная музыка"
    INDEX 01 48:34:64
  TRACK 16 AUDIO
    TITLE "Fausto Papetti / Passion Theme"
    PERFORMER "Инструментальная музыка"
    INDEX 01 52:58:23
  TRACK 17 AUDIO
    TITLE "Acoustic Alchemy / Jamaica Heart Beat"
    PERFORMER "Инструментальная музыка"
    INDEX 01 57:41:12
  TRACK 18 AUDIO
    TITLE "Martin Bottcher / Moonlight Guitar"
    PERFORMER "Инструментальная музыка"
    INDEX 01 63:07:28
  TRACK 19 AUDIO
    TITLE "Christopher Dean / Scherzo"
    PERFORMER "Инструментальная музыка"
    INDEX 01 66:01:01
  TRACK 20 AUDIO
    TITLE "Anthony Ventura / La paloma"
    PERFORMER "Инструментальная музыка"
    INDEX 01 70:03:30
  TRACK 21 AUDIO
    TITLE "Blonker / Amazonas"
    PERFORMER "Инструментальная музыка"
    INDEX 01 72:31:32
-- --

_________________
Other forum [Profile] [PM]
Display posts from previous:    
Reply to topic

The time now is: Today 19:45

All times are GMT + 3 Hours



You cannot post new topics in this forum
You cannot reply to topics in this forum
You cannot edit your posts in this forum
You cannot delete your posts in this forum
You cannot vote in polls in this forum
You cannot attach files in this forum
You cannot download files in this forum