Today is a free download without charge Download

И навсегда в глазах звёздное небо ( Михаил Пшенко ) (2011, Драма ) DVDRip

Reply to topic
 
Author
Message

Витек1 ®

Gender:

Longevity: 6 years 10 months

Posts: 451

Location: Житомир

Торрент-статистика

Post 07-Mar-2013 22:00

[Quote]

И навсегда в глазах звёздное небо -- Русское название: И навсегда в глазах звёздное небо
Год выпуска: 2011
Страна: Россия | Рублевское Братство
Жанр: Драма-Описание фильма:
Главный герой по имени Дикий приезжает в Москву навестить отца-бомжа. Но не застает его в живых. И только благодаря своей мечте, он сохранит свое человеческое лицо в водовороте драматических обстоятельств. Познает силу дружбы и любви, и проявит себя в борьбе за них.
-Режиссер: Михаил Пшенко
Актеры: Сергей Богданов, Мишель Бачинска, Михаил Пшенко, Динислам Ахматшин, Дмитрий Воробьёв, Алан Дугблей, Ольга Лебедева, Наталья Гончарова, Александр Щетковский, Алексей Иванков ...
Продолжительность: 01:17:50
-Видеокодек: Xvid
Битрейт видео: ~2051 kbps
Размер кадра: 720*304
Качество видео: DVDRip
Аудиокодек: AC3 5.1
Битрейт аудио: 448 kbps

МедиаИнфо:

General
Complete name : :\\I.navsegda.v.glazach.zviozdnoje.nebo.2011.O.DVDRip.avi
Format : AVI
Format/Info : Audio Video Interleave
File size : 1.36 GiB
Duration : 1h 17mn
Overall bit rate : 2 508 Kbps
Writing application : VirtualDubMod 1.5.10.3 | www.virtualdub-fr.org || (build 2550/release)
Writing library : VirtualDubMod build 2550/release
Video
ID : 0
Format : MPEG-4 Visual
Format profile : Advanced [email protected]
Format settings, BVOP : 2
Format settings, QPel : Yes
Format settings, GMC : No warppoints
Format settings, Matrix : Default (H.263)
Codec ID : XVID
Codec ID/Hint : XviD
Duration : 1h 17mn
Bit rate : 2 051 Kbps
Width : 720 pixels
Height : 304 pixels
Display aspect ratio : 2.35:1
Frame rate : 25.000 fps
Color space : YUV
Chroma subsampling : 4:2:0
Bit depth : 8 bits
Scan type : Progressive
Compression mode : Lossy
Bits/(Pixel*Frame) : 0.375
Stream size : 1.12 GiB (82%)
Writing library : XviD 1.2.1 (UTC 2008-12-04)
Audio
ID : 1
Format : AC-3
Format/Info : Audio Coding 3
Mode extension : CM (complete main)
Codec ID : 2000
Duration : 1h 17mn
Bit rate mode : Constant
Bit rate : 448 Kbps
Channel(s) : 6 channels
Channel positions : Front: L C R, Side: L R, LFE
Sampling rate : 48.0 KHz
Bit depth : 16 bits
Compression mode : Lossy
Delay relative to video : 20ms
Stream size : 249 MiB (18%)
Alignment : Split accross interleaves
Interleave, duration : 40 ms (1.00 video frame)
Interleave, preload duration : 500 ms

Скриншоты

Скриншоты:          

_________________
Скачал сам, дай скачать другому!!!Не забудь сказать -
Other forum [Profile] [PM]
Display posts from previous:    
Reply to topic

The time now is: Today 18:37

All times are GMT + 3 Hours



You cannot post new topics in this forum
You cannot reply to topics in this forum
You cannot edit your posts in this forum
You cannot delete your posts in this forum
You cannot vote in polls in this forum
You cannot attach files in this forum
You cannot download files in this forum