Today is a free download without charge Download

(Melodic Rock, AOR) Michael Stanley - Shadowland - 2010 (ItsAboutMusic IAM 0258 USA), FLAC (tracks+.cue), lossless

Reply to topic
 
Author
Message

Omen ®

Longevity: 7 years 8 months

Posts: 181087

Торрент-статистика

Post 30-Mar-2013 18:10

[Quote]

Michael Stanley - Shadowland
Жанр: Melodic Rock, AOR
Страна-производитель диска: USA
Год издания диска: 2010
Издатель (лейбл): ItsAboutMusic
Номер по каталогу: IAM 0258
Страна: USA
Аудиокодек: FLAC (*.flac)
Тип рипа: tracks+.cue
Битрейт аудио: lossless
Продолжительность: 01:00:36
Источник (релизер): Grapher
Наличие сканов в содержимом раздачи: cover-paradise
Треклист:
01. It's All About Tonight 04:45
02. I Am You 05:41
03. My Brand New Day 05:31
04. Come On Down 0 4:11
05. Shadowland 04:43
06. Good Idea at the Time 04:55
07. When She Falls 03:28
08. Skinny Jeans 05:28
09. I'm Not Finished Loving You 03:31
10. Maybe 03:58
11. How's That Workin' Out for You 04:19
12. Elegant Mess 03:55
13. Nice While it Lasted 06:11

Лог создания рипа

Exact Audio Copy V1.0 beta 3 from 29. August 2011
EAC extraction logfile from 28. January 2012, 13:42
Michael Stanley / Shadowland
Used drive : HL-DT-STDVDRAM GH22LS40 Adapter: 3 ID: 1
Read mode : SecureUtilize accurate stream : YesDefeat audio cache : YesMake use of C2 pointers : No
Read offset correction : 667Overread into Lead-In and Lead-Out : NoFill up missing offset samples with silence : YesDelete leading and trailing silent blocks : NoNull samples used in CRC calculations : YesUsed interface : Native Win32 interface for Win NT & 2000Gap handling : Appended to previous track
Used output format : User Defined EncoderSelected bitrate : 1024 kBit/sQuality : HighAdd ID3 tag : NoCommand line compressor : C:\Program Files (x86)\Exact Audio Copy\Flac\flac.exeAdditional command line options : -8 -V -T "ARTIST=%artist%" -T "TITLE=%title%" -T "ALBUM=%albumtitle%" -T "DATE=%year%" -T "TRACKNUMBER=%tracknr%" -T "GENRE=%genre%" -T "PERFORMER=%albuminterpret%" -T "COMPOSER=%composer%" %haslyrics%--tag-from-file=LYRICS="%lyricsfile%"%haslyrics% -T "ALBUMARTIST=%albumartist%" -T "DISCNUMBER=%cdnumber%" -T "TOTALDISCS=%totalcds%" -T "TOTALTRACKS=%numtracks%" -T "COMMENT=%comment%" %source% -o %dest%
TOC of the extracted CD
Track | Start | Length | Start sector | End sector --------------------------------------------------------- 1 | 0:00.00 | 4:45.52 | 0 | 21426 2 | 4:45.52 | 5:41.45 | 21427 | 47046 3 | 10:27.22 | 5:31.22 | 47047 | 71893 4 | 15:58.44 | 4:11.70 | 71894 | 90788 5 | 20:10.39 | 4:43.70 | 90789 | 112083 6 | 24:54.34 | 4:55.02 | 112084 | 134210 7 | 29:49.36 | 3:28.28 | 134211 | 149838 8 | 33:17.64 | 5:28.49 | 149839 | 174487 9 | 38:46.38 | 3:31.74 | 174488 | 190386 10 | 42:18.37 | 3:58.53 | 190387 | 208289 11 | 46:17.15 | 4:19.17 | 208290 | 227731 12 | 50:36.32 | 3:55.51 | 227732 | 245407 13 | 54:32.08 | 6:11.51 | 245408 | 273283
Track 1
Filename F:\EACRips\Michael Stanley - 2010 - Shadowland [FLAC]\01 - It's All About Tonight.wav
Pre-gap length 0:00:02.00
Peak level 96.6 % Extraction speed 1.0 X Track quality 100.0 % Test CRC 86FEAA92 Copy CRC 86FEAA92 Track not present in AccurateRip database Copy OK
Track 2
Filename F:\EACRips\Michael Stanley - 2010 - Shadowland [FLAC]\02 - I Am You.wav
Peak level 96.6 % Extraction speed 1.1 X Track quality 99.9 % Test CRC C4B35B40 Copy CRC C4B35B40 Track not present in AccurateRip database Copy OK
Track 3
Filename F:\EACRips\Michael Stanley - 2010 - Shadowland [FLAC]\03 - My Brand New Day.wav
Peak level 96.6 % Extraction speed 1.4 X Track quality 100.0 % Test CRC BD7709BE Copy CRC BD7709BE Track not present in AccurateRip database Copy OK
Track 4
Filename F:\EACRips\Michael Stanley - 2010 - Shadowland [FLAC]\04 - Come On Down.wav
Peak level 96.6 % Extraction speed 1.4 X Track quality 100.0 % Test CRC 82535CC9 Copy CRC 82535CC9 Track not present in AccurateRip database Copy OK
Track 5
Filename F:\EACRips\Michael Stanley - 2010 - Shadowland [FLAC]\05 - Shadowland.wav
Peak level 96.6 % Extraction speed 1.2 X Track quality 100.0 % Test CRC 829B4DC4 Copy CRC 829B4DC4 Track not present in AccurateRip database Copy OK
Track 6
Filename F:\EACRips\Michael Stanley - 2010 - Shadowland [FLAC]\06 - A Good Idea At The Time.wav
Peak level 96.6 % Extraction speed 1.6 X Track quality 100.0 % Test CRC 6A681EBC Copy CRC 6A681EBC Track not present in AccurateRip database Copy OK
Track 7
Filename F:\EACRips\Michael Stanley - 2010 - Shadowland [FLAC]\07 - When She Falls.wav
Peak level 96.6 % Extraction speed 1.6 X Track quality 100.0 % Test CRC 57745DA8 Copy CRC 57745DA8 Track not present in AccurateRip database Copy OK
Track 8
Filename F:\EACRips\Michael Stanley - 2010 - Shadowland [FLAC]\08 - Skinny Jeans.wav
Peak level 96.6 % Extraction speed 1.7 X Track quality 99.9 % Test CRC A470387E Copy CRC A470387E Track not present in AccurateRip database Copy OK
Track 9
Filename F:\EACRips\Michael Stanley - 2010 - Shadowland [FLAC]\09 - I'm Not Finished Loving You.wav
Peak level 96.6 % Extraction speed 1.8 X Track quality 100.0 % Test CRC 81E74542 Copy CRC 81E74542 Track not present in AccurateRip database Copy OK
Track 10
Filename F:\EACRips\Michael Stanley - 2010 - Shadowland [FLAC]\10 - Maybe.wav
Peak level 96.6 % Extraction speed 1.7 X Track quality 99.9 % Test CRC 4F96C015 Copy CRC 4F96C015 Track not present in AccurateRip database Copy OK
Track 11
Filename F:\EACRips\Michael Stanley - 2010 - Shadowland [FLAC]\11 - How's That Working Out For You.wav
Peak level 96.6 % Extraction speed 2.0 X Track quality 100.0 % Test CRC 9634EC3C Copy CRC 9634EC3C Track not present in AccurateRip database Copy OK
Track 12
Filename F:\EACRips\Michael Stanley - 2010 - Shadowland [FLAC]\12 - Elegant Mess.wav
Peak level 96.6 % Extraction speed 1.8 X Track quality 99.9 % Test CRC FAF284F7 Copy CRC FAF284F7 Track not present in AccurateRip database Copy OK
Track 13
Filename F:\EACRips\Michael Stanley - 2010 - Shadowland [FLAC]\13 - Nice While It Lasted.wav
Peak level 96.6 % Extraction speed 2.3 X Track quality 100.0 % Test CRC C15BF856 Copy CRC C15BF856 Track not present in AccurateRip database Copy OK
None of the tracks are present in the AccurateRip database
No errors occurred
End of status report
---- CUETools DB Plugin V2.1.3
[CTDB TOCID: mT1T7lJS.IIT2KNP7.5RPda9sOg-] disk not present in database, Submit result: mT1T7lJS.IIT2KNP7.5RPda9sOg- has been uploaded
==== Log checksum AEC693E6ABC8F41A8C361FA81203823F5DACAA36C7300E37FDBC7F274407502F ====

Содержание индексной карты (.CUE)

REM GENRE RockREM DATE 2010REM DISCID CC0E3B0DREM COMMENT "ExactAudioCopy v1.0b3"PERFORMER "Michael Stanley"TITLE "Shadowland"FILE "01 - It's All About Tonight.wav" WAVE TRACK 01 AUDIO TITLE "It's All About Tonight" PERFORMER "Michael Stanley" ISRC USJ7W0900301 INDEX 01 00:00:00FILE "02 - I Am You.wav" WAVE TRACK 02 AUDIO TITLE "I Am You" PERFORMER "Michael Stanley" ISRC USJ7W0900302 INDEX 01 00:00:00FILE "03 - My Brand New Day.wav" WAVE TRACK 03 AUDIO TITLE "My Brand New Day" PERFORMER "Michael Stanley" ISRC USJ7W0900303 INDEX 01 00:00:00FILE "04 - Come On Down.wav" WAVE TRACK 04 AUDIO TITLE "Come On Down" PERFORMER "Michael Stanley" ISRC USJ7W0900304 INDEX 01 00:00:00FILE "05 - Shadowland.wav" WAVE TRACK 05 AUDIO TITLE "Shadowland" PERFORMER "Michael Stanley" ISRC USJ7W0900305 INDEX 01 00:00:00FILE "06 - A Good Idea At The Time.wav" WAVE TRACK 06 AUDIO TITLE "A Good Idea At The Time" PERFORMER "Michael Stanley" ISRC USJ7W0900306 INDEX 01 00:00:00FILE "07 - When She Falls.wav" WAVE TRACK 07 AUDIO TITLE "When She Falls" PERFORMER "Michael Stanley" ISRC USJ7W0900307 INDEX 01 00:00:00FILE "08 - Skinny Jeans.wav" WAVE TRACK 08 AUDIO TITLE "Skinny Jeans" PERFORMER "Michael Stanley" ISRC USJ7W0900308 INDEX 01 00:00:00FILE "09 - I'm Not Finished Loving You.wav" WAVE TRACK 09 AUDIO TITLE "I'm Not Finished Loving You" PERFORMER "Michael Stanley" ISRC USJ7W0900309 INDEX 01 00:00:00FILE "10 - Maybe.wav" WAVE TRACK 10 AUDIO TITLE "Maybe" PERFORMER "Michael Stanley" ISRC USJ7W0900310 INDEX 01 00:00:00FILE "11 - How's That Working Out For You.wav" WAVE TRACK 11 AUDIO TITLE "How's That Working Out For You" PERFORMER "Michael Stanley" ISRC USJ7W0900311 INDEX 01 00:00:00FILE "12 - Elegant Mess.wav" WAVE TRACK 12 AUDIO TITLE "Elegant Mess" PERFORMER "Michael Stanley" ISRC USJ7W0900312 INDEX 01 00:00:00FILE "13 - Nice While It Lasted.wav" WAVE TRACK 13 AUDIO TITLE "Nice While It Lasted" PERFORMER "Michael Stanley" ISRC USJ7W0900313 INDEX 01 00:00:00

Лог проверки качества

-----------------------
DON'T MODIFY THIS FILE
-----------------------
PERFORMER: auCDtect Task Manager, ver. 1.5.1RC4 build 1.5.1.5Copyright (c) 2008-2010 y-soft. All rights reservedhttp://y-soft.org
ANALYZER: auCDtect: CD records authenticity detector, version 0.8.2Copyright (c) 2004 Oleg Berngardt. All rights reserved.Copyright (c) 2004 Alexander Djourik. All rights reserved.
FILE: 13 - Nice While It Lasted.flac Size: 41393620 Hash: AA1F81E052A75B863023D71918054383 Accuracy: -m8 Conclusion: CDDA 100% Signature: 23800C8DF0F664971E97A7610FD08E2EF7584679FILE: 12 - Elegant Mess.flac Size: 29315848 Hash: 7C0E512E9BDD26958DBDF7DFC746C64F Accuracy: -m8 Conclusion: CDDA 100% Signature: B2979653CEF9DF5B756D8DA27FB5BF12FAE4B70DFILE: 11 - How's That Working Out For You.flac Size: 33025652 Hash: 1F2F24E63DFA9EA0D4289AF99E9B481E Accuracy: -m8 Conclusion: CDDA 99% Signature: D2BA4747D04D96D76A0E041F5A7836A34D2B514FFILE: 10 - Maybe.flac Size: 28941007 Hash: 96543092DD72693E6EDDC31944B53D1B Accuracy: -m8 Conclusion: CDDA 100% Signature: 59C8C6F80B8DED35682F7AF427E67689EFA256D3FILE: 09 - I'm Not Finished Loving You.flac Size: 26284021 Hash: F4C018A572914D8905F001B3B2774758 Accuracy: -m8 Conclusion: CDDA 100% Signature: 4E9BAF6A287DC27317A83D2B0675131ED9D24ADBFILE: 08 - Skinny Jeans.flac Size: 37709418 Hash: C9CE7E64791AEF9A95AE590BF7845F1B Accuracy: -m8 Conclusion: CDDA 99% Signature: 4624352530BA6EE9C808F3DB967FD8EC6F2D15D9FILE: 07 - When She Falls.flac Size: 24825787 Hash: 876C938F6C4FAC00BEE3532795DB0192 Accuracy: -m8 Conclusion: CDDA 99% Signature: 3463CB21B16D042119A964D20AA7F86DDC80D50AFILE: 06 - A Good Idea At The Time.flac Size: 31994139 Hash: E716DDAB1162477B6DD55FC12B694679 Accuracy: -m8 Conclusion: CDDA 99% Signature: C8CF9DFCB08CC171C9215ABEE5802BABA9442D5FFILE: 05 - Shadowland.flac Size: 37923551 Hash: E6A9124F2E3C7DF1A30EA681D60F4F8E Accuracy: -m8 Conclusion: CDDA 100% Signature: 6DB53E3E70875E435B514757B9352477EE347332FILE: 04 - Come On Down.flac Size: 30679558 Hash: F078B219376F495D079883C7CDBDB675 Accuracy: -m8 Conclusion: CDDA 100% Signature: 43CBEE5840F7CC216BF8F4C72D55259D51BAE93FFILE: 03 - My Brand New Day.flac Size: 41999354 Hash: 4D9E3C86D3F2FBC9EC1EFD587CBCCAC3 Accuracy: -m8 Conclusion: CDDA 99% Signature: B647F225A45DD9367F7D1CD00A5CFDBEB04FBD67FILE: 02 - I Am You.flac Size: 38356637 Hash: 21C66DC34A5F530C608F343063D5CA75 Accuracy: -m8 Conclusion: CDDA 100% Signature: DAB583351C101D8C14849E2F3951AA0DBE2D143CFILE: 01 - It's All About Tonight.flac Size: 37295146 Hash: A22557457263E7361F5E4DC2D6A7ABC6 Accuracy: -m8 Conclusion: CDDA 100% Signature: 01892F507986325876EF3250F7A11FCD4E027E17
Доп. информация:

Состав

Michael Stanley - Guitar, Bass, Lead Vocal
Danny Powers, Marc Lee Shannon, Bobby Latina - Guitar
Michael Gismondi, Eric "Eroc" Sosinski - Bass
Tommy Dobeck - Drums
Rodney Psyka - Percussion
Paul Christensen - Saxophone
Al Moss - Pedal Steel
Jennifer Lee - Backing Vocal

Об исполнителе

"Shadowland": Возможно вас это удивит, но именно последнее перед выпуском этого альбома десятилетие (2000-2009) стало самой плодовитой декадой в карьере Майкла Стэнли. Именно таким его сделал выпуск "Shadowland", последовавший за Рождеством, и Стэнли, вероятно, припас самое лучшее для этого издания. Альбом словно вырвался на волю из ворот с лозунгом первого трека "It's All About Tonight", наполненным темпом рокера, который уже сам живой классик. Третий куплет этой открывающей вещицы начинается со строки «Вот я снова на сцене... и можно подумать, что я знаю больше, чем обычно человек моего возраста". Давайте все согласимся с тем, что мы рады, что Майкл этого не делает.
Баллада "I Am You" вдохновлена принципом "мы все в этом вместе", а "My Brand New Day" выглядит как именно та романтическая лирика, какую вы могли пожелать.
Уникальный аспект альбома - возвращение Стэнли к сочинению, не побоимся этого слова, "синглов" (помните о таких?) "When she falls", "I'm not finished loving you", "Maybe" и "Elegant mess" - все продолжительностью менее 4 минут, зрелые "поп" песни, которые были бы хороши на радио, если бы была нормальная радиостанция для их ротации.
А теперь Стэнли снова влез в свои "узкие джинсы" и продолжил свою прежнюю работу. Альбом завершается мелодичной "Nice While it Lasted" - песней, на самом деле написанной 22 года назад, сразу после кончины MSB. Она звучит так, как буд-то слушаешь последние треки альбома "Inside moves", но вполне возможно, что песня была написана вчера. Песня может напомнить многолетним поклонникам Майкла тему, впервые представленную в "Midwest Midnight" - юноша мечтает играть в группе, но вскоре оказывается разочарован реалиями музыкального "бизнеса". "Но это было хорошо, пока оно продолжалось. И всё труднее найти кого-то; того, кто бы поверил... . и это было хорошо, пока оно продолжалось. Он может попробовать, но он не сможет забыть это, потому что у него фонографическая память"... ну, и т.д.

Spectrogram

Other forum [Profile] [PM]
Similar theme
Forum Topic Author Torrent Replies Last Post
./templates/default/images/folder_dl.gif Rock (Melodic Rock / AOR) Dennis Churchill Dries - "I" - 2015, MP3, 320 kbps Omen
1 | 0

0 | 1034

13

2015-06-06 15:03
Omen Latest
Display posts from previous:    
Reply to topic

The time now is: Today 13:15

All times are GMT + 3 Hours



You cannot post new topics in this forum
You cannot reply to topics in this forum
You cannot edit your posts in this forum
You cannot delete your posts in this forum
You cannot vote in polls in this forum
You cannot attach files in this forum
You cannot download files in this forum