Today is a free download without charge Download

Animal planet. Неизведанные острова. Острова Амазонки / Wildest Islands. Brazil Amazon (2012-2013) HDTVRip [H.264]

Reply to topic
 
Author
Message

UndegraundMen ®

Longevity: 6 years 8 months

Posts: 25145

Торрент-статистика

Post 05-May-2013 00:02

[Quote]

Animal planet. Неизведанные острова. Острова Амазонки / Wildest Islands. Amazon Islands (2012-2013) HDTVRip [H.264]- Русское название: Animal planet. Неизведанные острова. Острова Амазонки
Оригинальное название: Wildest Islands. Amazon Islands
Страна: США
Режиссер / Телекомпания: Колин Коллис, Ричард Кирби / Off The Fence, Discovery LLC
Год выпуска: 2012-2013
Жанр: документальный, путешествие, туризм, природа, флора, фауна
Описание: У каждого райского острова есть свои хозяева - их исконные обитатели: от гигантов, оставшихся здесь со времён динозавров, до крохотных трудяг, не встречающихся больше нигде. Здесь самая большая в мире концентрация видов, здесь есть, на что посмотреть. Острова часто становятся домом для необычных созданий. Исследуем самые красивые острова планеты, и знакомимся с людьми и животными, для которых это родной дом.
В Амазонии, среди девственных лесов, пойм и изгибов великой реки, находится самое большое в мире скопление речных островов. Они образуют один из самых необычных и неповторимых ареалов на Земле и несколько раз в год, с очередным паводком полностью меняют свой облик...
Продолжительность: 00:43:59
Перевод: Одноголосый закадровый (профессиональный).
Видеокодек: MPEG-4 AVC/H.264
Битрейт видео: ~ 2 490 Кбит/с
Размер кадра: 1024 x 576
Качество видео: HDTVRip
Аудио:
1. [русский] АС3, 5.1 ch, 384 Кбит/с
2. [english] АС3, 5.1 ch, 384 Кбит/с

MediaInfo

Общее
Уникальный идентификатор : 208114310729052315764904762134092153153 (0x9C915BB8D194A254AA3B1DD162198141)
Полное имя : A:\Релизы\Wildest.Islands.6.Amazonia.(2012-2013).HDTVRip.mkv
Формат : Matroska
Версия формата : Version 2
Размер файла : 1,00 Гбайт
Продолжительность : 43 м.
Общий поток : 3260 Кбит/сек
Дата кодирования : UTC 2013-04-24 05:17:10
Программа кодирования : mkvmerge v6.1.0 ('Old Devil') built on Mar 2 2013 14:32:37
Библиотека кодирования : libebml v1.3.0 + libmatroska v1.4.0
Видео
Идентификатор : 1
Формат : AVC
Формат/Информация : Advanced Video Codec
Профиль формата : [url=mailto:[email protected]][email protected][/url]
Параметр CABAC формата : Да
Параметр ReFrames формата : 7 кадров
Идентификатор кодека : V_MPEG4/ISO/AVC
Продолжительность : 43 м.
Битрейт : 2490 Кбит/сек
Ширина : 1024 пикселя
Высота : 576 пикселей
Соотношение сторон : 16:9
Частота кадров : 25,000 кадров/сек
Цветовое пространство : YUV
Субдискретизация насыщенности : 4:2:0
Битовая глубина : 8 бит
Тип развёртки : Прогрессивная
Бит/(Пиксели*Кадры) : 0.169
Размер потока : 763 Мбайт (74%)
Заголовок : Бразилия-Амазонка
Библиотека кодирования : x264 core 130 r2273 b3065e6
Настройки программы : cabac=1 / ref=7 / deblock=1:-2:-2 / analyse=0x3:0x133 / me=umh / subme=10 / psy=1 / psy_rd=1.00:0.10 / mixed_ref=1 / me_range=24 / chroma_me=1 / trellis=2 / 8x8dct=1 / cqm=0 / deadzone=21,11 / fast_pskip=0 / chroma_qp_offset=-3 / threads=6 / lookahead_threads=1 / sliced_threads=0 / nr=0 / decimate=1 / interlaced=0 / bluray_compat=0 / constrained_intra=0 / bframes=7 / b_pyramid=2 / b_adapt=2 / b_bias=0 / direct=3 / weightb=1 / open_gop=0 / weightp=2 / keyint=250 / keyint_min=23 / scenecut=40 / intra_refresh=0 / rc_lookahead=40 / rc=2pass / mbtree=1 / bitrate=2490 / ratetol=1.0 / qcomp=0.60 / qpmin=10 / qpmax=51 / qpstep=4 / cplxblur=20.0 / qblur=0.5 / vbv_maxrate=62500 / vbv_bufsize=78125 / nal_hrd=none / ip_ratio=1.40 / aq=1:1.00
Default : Да
Forced : Да
Аудио #1
Идентификатор : 2
Формат : AC-3
Формат/Информация : Audio Coding 3
Расширение режима : CM (complete main)
Параметр Endianness формата : Big
Идентификатор кодека : A_AC3
Продолжительность : 43 м.
Вид битрейта : Постоянный
Битрейт : 384 Кбит/сек
Каналы : 6 каналов
Расположение каналов : Front: L C R, Side: L R, LFE
Частота : 48,0 КГц
Битовая глубина : 16 бит
Метод сжатия : С потерями
Размер потока : 121 Мбайт (12%)
Заголовок : Dub
Язык : Russian
Default : Да
Forced : Да
Аудио #2
Идентификатор : 3
Формат : AC-3
Формат/Информация : Audio Coding 3
Расширение режима : CM (complete main)
Параметр Endianness формата : Big
Идентификатор кодека : A_AC3
Продолжительность : 43 м.
Вид битрейта : Постоянный
Битрейт : 384 Кбит/сек
Каналы : 6 каналов
Расположение каналов : Front: L C R, Side: L R, LFE
Частота : 48,0 КГц
Битовая глубина : 16 бит
Метод сжатия : С потерями
Размер потока : 121 Мбайт (12%)
Заголовок : Original
Язык : English
Default : Нет
Forced : Нет
Скриншоты:
         
         
Пожалуйста, не уходите с раздачи - помогите докачать другим. Если понравился релиз - жмите кнопку "Спасибо"!
Other forum [Profile] [PM]
Display posts from previous:    
Reply to topic

The time now is: Today 20:52

All times are GMT + 3 Hours



You cannot post new topics in this forum
You cannot reply to topics in this forum
You cannot edit your posts in this forum
You cannot delete your posts in this forum
You cannot vote in polls in this forum
You cannot attach files in this forum
You cannot download files in this forum