Today is a free download without charge Download

Angelfish - Angelfish (1994) [APE|Lossless]<Alternative Rock/Dream Pop>

Reply to topic
 
Author
Message

UndegraundMen ®

Longevity: 6 years 9 months

Posts: 25145

Торрент-статистика

Post 27-Apr-2013 00:01

[Quote]

Angelfish - Angelfish (1994)- Год: 1994
Жанр: Alternative Rock/Dream Pop
Страна: Шотландия
Продолжительность: 00:35:54
Кодек: APE (image+.cue)
Битрейт: Lossless
Трек лист:
01. Dogs in a Cage (2:34)
02. Suffocate me (3:40)
03. You Can Love Her (3:49)
04. King of the World (3:03)
05. Sleep With Me (3:21)
06. Heartbreak to Hate (4:15)
07. The Sun Won't Shine (3:52)
08. Mummy Can't Drive (3:27)
09. Tomorrow Forever (3:30)
10. The End (4:24)

Дополнительная информация&#58;

Angelfish — шотландская рок-группа, сформированная в Эдинбурге в 1992 году как сайд-проект музыкального коллектива Goodbye Mr. Mackenzie, после того как бывшая клавишница и бэк-вокалистка Goodbye Mr. Mackenzie Ширли Мэнсон подписала контракт на сольное творчество с лейблом MCA Records. Angelfish выпустили одноимённый студийный альбом Angelfish, мини-альбом Suffocate Me и сингл «Heartbreak to Hate». Композиция «Suffocate Me» имела некоторую популярность и часто транслировалась на студенческих радиостанциях.
В 1994 году видеоклип на песню «Suffocate Me» всего один раз показывался на канале MTV в рамках шоу 120 Minutes, во время которого Ширли Мэнсон заметили основатели группы Garbage Стив Маркер, Бутч Виг и Дюк Эриксон. Музыканты предложили Мэнсон стать вокалисткой новой группы. Певица согласилась принять участие в проекте, но первое прослушивание было провальным, и Ширли Мэнсон вернулась к Angelfish, так как у музыкантов был прерван гастрольный тур. Однако вскоре группа Angelfish прекратила своё существование, и Мэнсон связалась с менеджером Garbage и попросилась на ещё одно прослушивание. В августе 1994 года Ширли Мэнсон присоединилась к Garbage.
Состав:
Shirley Manson - вокал
Martin Metcalfe - гитара
Fin Wilson - бас
Derek Kelly - ударные

Отчёт ЕАС&#58;

Код:
Exact Audio Copy V0.99 prebeta 4 from 23. January 2008
Отчёт EAC об извлечении, выполненном 8. февраля 2009, 23:46
Angelfish / Angelfish
Дисковод: PIONEER DVD-RW DVR-K15RA   Adapter: 1  ID: 0
Режим чтения                 : Достоверность
Использование точного потока : Да
Отключение кэша аудио        : Да
Использование указателей C2  : Нет
Коррекция смещения при чтении                     : 48
Способность читать области Lead-in и Lead-out     : Нет
Заполнение пропущенных сэмплов тишиной            : Да
Удаление блоков с тишиной в начале и конце        : Нет
При вычислениях CRC использовались нулевые сэмплы : Нет
Интерфейс                                         : Встроенный Win32-интерфейс для Win NT/2000
Выходной формат : Внутренние WAV-операции
Формат сэмплов  : 44.100 Гц; 16 бит; стерео
TOC извлечённого CD
     Трек |   Старт  | Длительность | Начальный сектор | Конечный сектор
    ---------------------------------------------------------------------
       1  |  0:00.37 |    2:33.65   |          37      |      11576
       2  |  2:34.27 |    3:40.10   |       11577      |      28086
       3  |  6:14.37 |    3:48.48   |       28087      |      45234
       4  | 10:03.10 |    3:03.25   |       45235      |      58984
       5  | 13:06.35 |    3:20.67   |       58985      |      74051
       6  | 16:27.27 |    4:15.23   |       74052      |      93199
       7  | 20:42.50 |    3:51.42   |       93200      |     110566
       8  | 24:34.17 |    3:26.43   |      110567      |     126059
       9  | 28:00.60 |    3:29.67   |      126060      |     141801
      10  | 31:30.52 |    4:23.45   |      141802      |     161571
Характеристики диапазона извлечения и сообщения об ошибках
Выбранный диапазон
     Имя файла D:\New Folder (2)\Angelfish - Angelfish.wav
     Пиковый уровень 97.3 %
     Качество диапазона 100.0 %
     CRC копии 4036E95B
     Копирование... OK
Ошибок не произошло
Конец отчёта

Отчёт auCDtect Task manager&#58;

Код:
-----------------------
DON'T MODIFY THIS FILE
-----------------------
PERFORMER: auCDtect Task Manager, ver. 1.5.1RC4 build 1.5.1.5
Copyright (c) 2008-2010 y-soft. All rights reserved
http://y-soft.org
ANALYZER: auCDtect: CD records authenticity detector, version 0.8.2
Copyright (c) 2004 Oleg Berngardt. All rights reserved.
Copyright (c) 2004 Alexander Djourik. All rights reserved.
FILE: Angelfish - Angelfish.ape
  Size: 247754236 Hash: 1AB0AD4171112C137C88A6BBD0B07A69 Accuracy: -m0
  Conclusion: CDDA 100%
  Signature: A9D82EBD04923E459C01D452E6DCF4D51FA2EADB

AccurateRip&#58;

Код:
[Verification date: 26.04.2013 14:22:46]
[Disc ID: 000cfce6-00693351-9c086a0a]
Pregap length 00:00:37.
Track  [ CRC    ] Status
01  [c08c74a3] (09/09) Accurately ripped as in pressing(s) #1
02  [64ffcdbb] (10/10) Accurately ripped as in pressing(s) #1
03  [62299185] (10/10) Accurately ripped as in pressing(s) #1
04  [d0c5f2ce] (10/10) Accurately ripped as in pressing(s) #1
05  [3a972bee] (09/09) Accurately ripped as in pressing(s) #1
06  [9e6f6b32] (09/09) Accurately ripped as in pressing(s) #1
07  [b5164587] (09/09) Accurately ripped as in pressing(s) #1
08  [be9b6f38] (09/09) Accurately ripped as in pressing(s) #1
09  [120cc4a8] (09/09) Accurately ripped as in pressing(s) #1
10  [c4ff8369] (10/10) Accurately ripped as in pressing(s) #1
Track  [ CRC32  ]  [W/O NULL]  [  LOG   ]
--  [9587290A]  [4036E95B]   W/O NULL
01  [708C98B9]  [E2B64EA4]
02  [8764699C]  [10F13860]
03  [91E9B123]  [152AB51A]
04  [7D0B1AC7]  [E0A9E697]
05  [4E60A271]  [7E353277]
06  [252B3E13]  [0EBDBB99]
07  [6A15FDC6]  [E01819D3]
08  [FB1BD8BA]  [6AF2294A]
09  [1FFA3346]  [7393FD79]
10  [DBCA17F5]  [D63D6450]
Время раздачи: Обычно С 19:00 до 00:00
Other forum [Profile] [PM]

Dracula

Longevity: 6 years

Posts: 10646

Торрент-статистика

Post 28-Apr-2013 11:17 (after 1 day 11 hours)

Топик был перенесен из форума Учебная и научно-популярная литература в форум Alternative


alex
 

Dracula

Longevity: 6 years

Posts: 10646

Торрент-статистика

Post 17-May-2013 15:08 (after 20 days)

Топик был перенесен из форума Alternative в форум Rock


p2000s
 

Dracula

Longevity: 6 years

Posts: 10646

Торрент-статистика

Post 17-May-2013 15:10 (after 20 days)

Топик был перенесен из форума Rock в форум Alternative


p2000s
 
Display posts from previous:    
Reply to topic

The time now is: Today 17:20

All times are GMT + 3 Hours



You cannot post new topics in this forum
You cannot reply to topics in this forum
You cannot edit your posts in this forum
You cannot delete your posts in this forum
You cannot vote in polls in this forum
You cannot attach files in this forum
You cannot download files in this forum