Today is a free download without charge Download

(Rhythmic Noise, Tribal, Industrial) iVardensphere - Apok (2011) [FLAC|Lossless]

Reply to topic
 
Author
Message

UndegraundMen ®

Longevity: 6 years 9 months

Posts: 25145

Торрент-статистика

Post 25-May-2013 00:03

[Quote]

iVardensphere - Apok- Год: 2011
Лейбл: Metropolis - MET 762
Жанр: Rhythmic Noise, Tribal, Industrial
Продолжительность: 01:19:37
Кодек: FLAC
Битрейт: Lossless
Типрипа: tracks
Треклист:
01. Sutekh (4:52)
02. Here Lies Lily Brant (5:51)
03. Nazca (Feat. Servitor Sanctum) (feat. Sean Malley) (6:41)
04. Myopic (Feat. Caustic) (4:28)
05. Cracked Earth (Feat. I:Scintilla) (5:13)
06. Acheron (Feat. God Module) (5:13)
07. Of Ancient Reprise (Feat. This Morn' Omina) (7:57)
08. Chasing The Dragon (6:24)
09. Devils (5:21)
10. Ghostnote (3:27)
11. People Of The Sun (4:55)
12. Cracked Earth (Skold Remix) (4:15)
13. Bloodwater (ESA Remix) (3:50)
14. Chasing The Dragon (Reconstructed By Releveler) (4:54)
15. Here Lies Lily Brandt (6:15)

Отчёт ЕАС:

Код:
Exact Audio Copy V1.0 beta 3 from 29. August 2011
EAC extraction logfile from 18. January 2012, 23:29
iVardensphere / APOK
Used drive  : TSSTcorpCDDVDW TS-L633C   Adapter: 0  ID: 1
Read mode               : Secure
Utilize accurate stream : Yes
Defeat audio cache      : Yes
Make use of C2 pointers : No
Read offset correction                      : 6
Overread into Lead-In and Lead-Out          : No
Fill up missing offset samples with silence : Yes
Delete leading and trailing silent blocks   : No
Null samples used in CRC calculations       : Yes
Used interface                              : Native Win32 interface for Win NT & 2000
Gap handling                                : Appended to previous track
Used output format              : User Defined Encoder
Selected bitrate                : 1024 kBit/s
Quality                         : High
Add ID3 tag                     : No
Command line compressor         : C:\Program Files (x86)\FLAC\flac.exe
Additional command line options : -8 -V -T "ARTIST=%artist%" -T "TITLE=%title%" -T "ALBUM=%albumtitle%" -T "DATE=%year%" -T "TRACKNUMBER=%tracknr%" -T "GENRE=%genre%" -T "COMMENT=%comment%" -T "BAND=%albuminterpret%" -T "COMPOSER=%composer%" %source%
TOC of the extracted CD
     Track |   Start  |  Length  | Start sector | End sector
    ---------------------------------------------------------
        1  |  0:00.00 |  4:52.27 |         0    |    21926
        2  |  4:52.27 |  5:51.25 |     21927    |    48276
        3  | 10:43.52 |  6:41.37 |     48277    |    78388
        4  | 17:25.14 |  4:27.42 |     78389    |    98455
        5  | 21:52.56 |  5:13.33 |     98456    |   121963
        6  | 27:06.14 |  5:12.68 |    121964    |   145431
        7  | 32:19.07 |  7:57.04 |    145432    |   181210
        8  | 40:16.11 |  6:23.72 |    181211    |   210007
        9  | 46:40.08 |  5:21.34 |    210008    |   234116
       10  | 52:01.42 |  3:27.28 |    234117    |   249669
       11  | 55:28.70 |  4:55.28 |    249670    |   271822
       12  | 60:24.23 |  4:15.11 |    271823    |   290958
       13  | 64:39.34 |  3:49.56 |    290959    |   308189
       14  | 68:29.15 |  4:54.14 |    308190    |   330253
       15  | 73:23.29 |  6:14.40 |    330254    |   358343
Track  1
     Filename D:\EACrips\iVardensphere-APOK\Sutekh-iVardensphere-APOK-01.wav
     Pre-gap length  0:00:02.00
     Peak level 100.0 %
     Extraction speed 1.2 X
     Track quality 100.0 %
     Test CRC F5B88100
     Copy CRC F5B88100
     Accurately ripped (confidence 1)  [838E7FB6]  (AR v1)
     Copy OK
Track  2
     Filename D:\EACrips\iVardensphere-APOK\Here_Lies_Lily_Brant-iVardensphere-APOK-02.wav
     Peak level 98.8 %
     Extraction speed 1.4 X
     Track quality 100.0 %
     Test CRC 6C62955F
     Copy CRC 6C62955F
     Accurately ripped (confidence 1)  [316761C3]  (AR v1)
     Copy OK
Track  3
     Filename D:\EACrips\iVardensphere-APOK\Nazca_(Feat._Servitor_Sanctum)-iVardensphere-APOK-03.wav
     Peak level 98.8 %
     Extraction speed 1.6 X
     Track quality 100.0 %
     Test CRC 9DF525E6
     Copy CRC 9DF525E6
     Accurately ripped (confidence 1)  [5995910E]  (AR v1)
     Copy OK
Track  4
     Filename D:\EACrips\iVardensphere-APOK\Myopic_(Feat._Caustic)-iVardensphere-APOK-04.wav
     Peak level 98.8 %
     Extraction speed 1.5 X
     Track quality 99.9 %
     Test CRC 88827A7D
     Copy CRC 88827A7D
     Accurately ripped (confidence 1)  [FEE2ACC4]  (AR v1)
     Copy OK
Track  5
     Filename D:\EACrips\iVardensphere-APOK\Cracked_Earth_(Feat._I-Scintilla)-iVardensphere-APOK-05.wav
     Peak level 98.8 %
     Extraction speed 1.8 X
     Track quality 100.0 %
     Test CRC 712DE24E
     Copy CRC 712DE24E
     Accurately ripped (confidence 1)  [EA30BE62]  (AR v1)
     Copy OK
Track  6
     Filename D:\EACrips\iVardensphere-APOK\Acheron_(Feat._God_Module)-iVardensphere-APOK-06.wav
     Peak level 98.8 %
     Extraction speed 1.9 X
     Track quality 100.0 %
     Test CRC E7325B34
     Copy CRC E7325B34
     Accurately ripped (confidence 1)  [7B4AF079]  (AR v1)
     Copy OK
Track  7
     Filename D:\EACrips\iVardensphere-APOK\Of_Ancient_Reprise_(Feat._This_Morn'_Omina)-iVardensphere-APOK-07.wav
     Peak level 98.8 %
     Extraction speed 2.0 X
     Track quality 99.9 %
     Test CRC 42F9CF37
     Copy CRC 42F9CF37
     Accurately ripped (confidence 1)  [DDEB0736]  (AR v1)
     Copy OK
Track  8
     Filename D:\EACrips\iVardensphere-APOK\Chasing_The_Dragon-iVardensphere-APOK-08.wav
     Peak level 98.8 %
     Extraction speed 2.2 X
     Track quality 100.0 %
     Test CRC 7D29C01A
     Copy CRC 7D29C01A
     Accurately ripped (confidence 1)  [97C26CEA]  (AR v1)
     Copy OK
Track  9
     Filename D:\EACrips\iVardensphere-APOK\Devils-iVardensphere-APOK-09.wav
     Peak level 98.8 %
     Extraction speed 2.3 X
     Track quality 100.0 %
     Test CRC E8DED984
     Copy CRC E8DED984
     Accurately ripped (confidence 1)  [FA1F9251]  (AR v1)
     Copy OK
Track 10
     Filename D:\EACrips\iVardensphere-APOK\Ghostnote-iVardensphere-APOK-10.wav
     Peak level 98.8 %
     Extraction speed 2.2 X
     Track quality 100.0 %
     Test CRC 0B6526CD
     Copy CRC 0B6526CD
     Accurately ripped (confidence 1)  [16C5C017]  (AR v1)
     Copy OK
Track 11
     Filename D:\EACrips\iVardensphere-APOK\People_Of_The_Sun-iVardensphere-APOK-11.wav
     Peak level 98.8 %
     Extraction speed 2.4 X
     Track quality 100.0 %
     Test CRC C9614A07
     Copy CRC C9614A07
     Accurately ripped (confidence 1)  [C008526B]  (AR v1)
     Copy OK
Track 12
     Filename D:\EACrips\iVardensphere-APOK\Cracked_Earth_(Skold_Remix)-iVardensphere-APOK-12.wav
     Peak level 98.8 %
     Extraction speed 2.4 X
     Track quality 100.0 %
     Test CRC 04CBFAED
     Copy CRC 04CBFAED
     Accurately ripped (confidence 1)  [87D7CA81]  (AR v1)
     Copy OK
Track 13
     Filename D:\EACrips\iVardensphere-APOK\Bloodwater_(ESA_Remix)-iVardensphere-APOK-13.wav
     Peak level 100.0 %
     Extraction speed 2.1 X
     Track quality 99.9 %
     Test CRC 0BFDF028
     Copy CRC 0BFDF028
     Accurately ripped (confidence 1)  [4E39F31D]  (AR v1)
     Copy OK
Track 14
     Filename D:\EACrips\iVardensphere-APOK\Chasing_the_Dragon_(Reconstructed_By_releveleR)-iVardensphere-APOK-14.wav
     Peak level 98.5 %
     Extraction speed 2.5 X
     Track quality 100.0 %
     Test CRC ADFFECD6
     Copy CRC ADFFECD6
     Accurately ripped (confidence 1)  [C5668390]  (AR v1)
     Copy OK
Track 15
     Filename D:\EACrips\iVardensphere-APOK\Here_Lies_Lily_Brant_(iVs_Vs._Pull_Out_Kings)-iVardensphere-APOK-15.wav
     Peak level 98.8 %
     Extraction speed 2.7 X
     Track quality 100.0 %
     Test CRC FE42DD5A
     Copy CRC FE42DD5A
     Accurately ripped (confidence 1)  [45E36514]  (AR v1)
     Copy OK
All tracks accurately ripped
No errors occurred
End of status report
---- CUETools DB Plugin V2.1.3
[CTDB TOCID: SPJl5QyODr.lTjQt4QTGdjRFoWk-] disk not present in database, Submit result: SPJl5QyODr.lTjQt4QTGdjRFoWk- has been uploaded
==== Log checksum E8689D2072256B6FD45D39C8E48DFB9D92743B8196397206B1B4AC3A18FBB43C ====

Отчёт auCDtect Task manager:

Код:
-----------------------
DON'T MODIFY THIS FILE
-----------------------
PERFORMER: auCDtect Task Manager, ver. 1.5.1RC6 build 1.5.1.7
Copyright (c) 2008-2010 y-soft. All rights reserved
http://y-soft.org
ANALYZER: auCDtect: CD records authenticity detector, version 0.8.2
Copyright (c) 2004 Oleg Berngardt. All rights reserved.
Copyright (c) 2004 Alexander Djourik. All rights reserved.
FILE: 15. Here Lies Lily Brandt.flac
  Size: 44917029 Hash: 34AF5B7A8C60AD4DA296DDF6BC4776AA Accuracy: -m0
  Conclusion: CDDA 100%
  Signature: 18E0E9EB2AC77D09CB1CBD04316ED2408C1CD9FE
FILE: 14. Chasing The Dragon (Reconstructed By Releveler).flac
  Size: 33284396 Hash: 3820F031ECC0D3C57E79BF9C29858D38 Accuracy: -m0
  Conclusion: CDDA 99%
  Signature: 7A6E1C3D20DDDF4CFAAE752EA603894E8FF8B1FD
FILE: 13. Bloodwater (ESA Remix).flac
  Size: 28123886 Hash: 3AB4B622710B64E0489CFDBB8BC28B46 Accuracy: -m0
  Conclusion: CDDA 100%
  Signature: 30D9FA51CF8913F9A9DB293C1AA6F93BCB06D20B
FILE: 12. Cracked Earth (Skold Remix).flac
  Size: 34836876 Hash: AE723FEB51A61A884AA0EA834A95A2FA Accuracy: -m0
  Conclusion: CDDA 100%
  Signature: A46611D31AB691BC252A01D9BE3CC25EC65BB170
FILE: 11. People Of The Sun.flac
  Size: 30375746 Hash: 860C2441C691CF34D5116A57E73CD459 Accuracy: -m0
  Conclusion: CDDA 100%
  Signature: 12DEAF6B3ACB7594400EB28FB9C0F910D97EF873
FILE: 10. Ghostnote.flac
  Size: 23349215 Hash: 702C14C2460F7BB9A049350864CD8A43 Accuracy: -m0
  Conclusion: CDDA 100%
  Signature: FF5E571AA81DF96BCA73D8E748202A4FC626C4DA
FILE: 09. Devils.flac
  Size: 37175449 Hash: 7B9D3BAB006FC2C701327CBC11235500 Accuracy: -m0
  Conclusion: CDDA 100%
  Signature: 161C82A8BC40833AF4606C42FFE6D22D1EE230FF
FILE: 08. Chasing The Dragon.flac
  Size: 45862602 Hash: 532CF6C19ECDD54AD2291E51EB8D2348 Accuracy: -m0
  Conclusion: CDDA 100%
  Signature: 0081BF56B06D256DBA9EECC6DD86DC25CFDFFB24
FILE: 07. Of Ancient Reprise (Feat. This Morn' Omina).flac
  Size: 56343025 Hash: BF2C2B4CE349416AEB8915EB0B3B61BB Accuracy: -m0
  Conclusion: CDDA 100%
  Signature: DA301F391A5BD690EC0AC507E3DC304241A2222F
FILE: 06. Acheron (Feat. God Module).flac
  Size: 38566376 Hash: 05B503D438CD7A8E32198FFE6EEC68A6 Accuracy: -m0
  Conclusion: CDDA 100%
  Signature: C37028EA2221E4ABC5A6AA4897EEFBACD69575D9
FILE: 05. Cracked Earth (Feat. I-Scintilla).flac
  Size: 37370451 Hash: 2F64A7B9D364E753E77F0C13933C2098 Accuracy: -m0
  Conclusion: CDDA 100%
  Signature: 9B9039B38969E90EE242B94BBF20E270B672EC3A
FILE: 04. Myopic (Feat. Caustic).flac
  Size: 36989680 Hash: 3D5552E0E319D7F22A2BC865E013E879 Accuracy: -m0
  Conclusion: CDDA 100%
  Signature: 2716E073DB389F2C612270CCD83EB4275F5CA7CC
FILE: 03. Nazca (Feat. Servitor Sanctum) (feat. Sean Malley).flac
  Size: 41898716 Hash: 0264DC499C9611CD2F11E01A910BF569 Accuracy: -m0
  Conclusion: CDDA 100%
  Signature: 99C23495C352CB6B9EB9854D06F1726FBBD1590F
FILE: 02. Here Lies Lily Brant.flac
  Size: 41339147 Hash: A30B80BE303B1315CC7E936065FFB312 Accuracy: -m0
  Conclusion: CDDA 100%
  Signature: C3CEC4C5548C578B258496310E17C474F385A94A
FILE: 01. Sutekh.flac
  Size: 32066584 Hash: B953D1566FC98EA62C39CFB293AE4A73 Accuracy: -m0
  Conclusion: CDDA 100%
  Signature: 4E5E30F4FCCE3696E6FB0F906AB032A857CB7156

Discogs

Время раздачи: 12/7
Other forum [Profile] [PM]

Dracula

Longevity: 6 years

Posts: 10640

Торрент-статистика

Post 25-May-2013 14:16 (after 14 hours)

Топик был перенесен из форума Обучающее видео в форум Industrial, Noise, EBM, Dark Electro, Aggrotech, Synthpop, New Wave, Synth-pop, Technopop


RUGUI
 
Display posts from previous:    
Reply to topic

The time now is: Today 08:06

All times are GMT + 3 Hours



You cannot post new topics in this forum
You cannot reply to topics in this forum
You cannot edit your posts in this forum
You cannot delete your posts in this forum
You cannot vote in polls in this forum
You cannot attach files in this forum
You cannot download files in this forum