Today is a free download without charge Download

George Moustaki - Master Serie: Georges Moustaki (2001) [FLAC|Lossless]

Reply to topic
 
Author
Message

UndegraundMen ®

Longevity: 6 years 4 months

Posts: 25149

Торрент-статистика

Post 25-May-2013 00:04

[Quote]

George Moustaki - Master Serie: Georges Moustaki (2001)- Год: 2001 ( Org. 1986 )
Жанр: Chanson
Издатель: Universal Music {589 025-2}
Страна изготовитель: France
Продолжительность: 00:48:55
Кодек: FLAC | Битрейт: Lossless
Источник: Web
Жорж Мустаки (фр. Georges Moustaki) 3 мая 1934, Александрия, Египет — 23 мая 2013, Ницца, Франция) — французский шансонье, бард и композитор.
Певец, настоящее имя которого Джузеппе Мустакки, родился в еврейской семье в Александрии в 1934 году. Еще в юные годы он всерьез увлекся французским шансоном и после окончания школы перебрался в Париж.
В 1958 году Мустаки познакомится с певицей Эдит Пиаф, после чего между ними вспыхнул бурный роман, длившийся около года. За это время он написал для нее несколько песен, в том числе одну из самых популярных в ее коллекции — «Милорд». Помимо Пиаф, композитор сотрудничал с такими звездами французской эстрады, как Ив Монтан, Далида, Анри Сальвадор. Сам Мустаки начал выступать в 1968 году и завершил сольную карьеру в 2009 году в Барселоне.
Музыкант скончался в Ницце, 23 Мая 2013 где провел последние годы жизни.
Трек лист:
01. Le temps de vivre [03:03]
02. Les eaux de mars [03:41]
03. Je ne sais pas ou tu commences [03:28]
04. La ligne droite [02:48]
05. Danse [03:00]
06. Ma liberte [02:50]
07. La carte du tendre [03:03]
08. La philosophie Batucada [03:08]
09. Ma solitude [03:00]
10. Le facteur [04:08]
11. La marche de Sacco et Vanzetti [03:13]
12. Les amis de Georges [02:30]
13. Balance [03:19]
14. Joseph [02:31]
15. Le meteque [02:32]
16. Il est trop tard [02:41]

Отчёт ЕАС:

Код:
Exact Audio Copy V1.0 beta 3 from 29. August 2011
EAC extraction logfile from 22. January 2013, 16:39
Georges Moustaki / Master Serie
Used drive  : ATAPI   DVD A  DH24ABS   Adapter: 1  ID: 0
Read mode               : Secure
Utilize accurate stream : Yes
Defeat audio cache      : Yes
Make use of C2 pointers : No
Read offset correction                      : 6
Overread into Lead-In and Lead-Out          : No
Fill up missing offset samples with silence : Yes
Delete leading and trailing silent blocks   : No
Null samples used in CRC calculations       : Yes
Used interface                              : Native Win32 interface for Win NT & 2000
Gap handling                                : Appended to previous track
Used output format              : User Defined Encoder
Selected bitrate                : 768 kBit/s
Quality                         : High
Add ID3 tag                     : No
Command line compressor         : C:\Program Files (x86)\Exact Audio Copy\FLAC\FLAC.EXE
Additional command line options : -8 -V -T "ARTIST=%artist%" -T "TITLE=%title%" -T "ALBUM=%albumtitle%" -T "DATE=%year%" -T "TRACKNUMBER=%tracknr%" -T "TOTALTRACKS=%numtracks%" -T "GENRE=%genre%" -T "ALBUM ARTIST=%albumartist%" -T "ALBUMARTIST=%albumartist%" -T "COMMENT=EAC V1.0 beta 3, Secure Mode, Test & Copy, AccurateRip, FLAC -8" %source%
TOC of the extracted CD
     Track |   Start  |  Length  | Start sector | End sector
    ---------------------------------------------------------
        1  |  0:00.00 |  3:02.65 |         0    |    13714
        2  |  3:02.65 |  3:40.50 |     13715    |    30264
        3  |  6:43.40 |  3:27.70 |     30265    |    45859
        4  | 10:11.35 |  2:47.40 |     45860    |    58424
        5  | 12:59.00 |  2:59.72 |     58425    |    71921
        6  | 15:58.72 |  2:50.20 |     71922    |    84691
        7  | 18:49.17 |  3:03.25 |     84692    |    98441
        8  | 21:52.42 |  3:07.58 |     98442    |   112524
        9  | 25:00.25 |  2:59.52 |    112525    |   126001
       10  | 28:00.02 |  4:08.08 |    126002    |   144609
       11  | 32:08.10 |  3:12.52 |    144610    |   159061
       12  | 35:20.62 |  2:30.25 |    159062    |   170336
       13  | 37:51.12 |  3:18.70 |    170337    |   185256
       14  | 41:10.07 |  2:30.45 |    185257    |   196551
       15  | 43:40.52 |  2:32.23 |    196552    |   207974
       16  | 46:13.00 |  2:40.60 |    207975    |   220034
Track  1
     Filename C:\Users\Utente\Desktop\George Moustaki\01-Le temps de vivre-Georges Moustaki.flac
     Pre-gap length  0:00:02.00
     Peak level 99.9 %
     Extraction speed 4.7 X
     Track quality 100.0 %
     Test CRC CE620C88
     Copy CRC CE620C88
     Accurately ripped (confidence 7)  [119E0A22]  (AR v1)
     Copy OK
Track  2
     Filename C:\Users\Utente\Desktop\George Moustaki\02-Les eaux de mars-Georges Moustaki.flac
     Pre-gap length  0:00:01.60
     Peak level 99.9 %
     Extraction speed 5.3 X
     Track quality 100.0 %
     Test CRC E3DA2976
     Copy CRC E3DA2976
     Accurately ripped (confidence 7)  [5E4CECE8]  (AR v1)
     Copy OK
Track  3
     Filename C:\Users\Utente\Desktop\George Moustaki\03-Je ne sais pas ou tu commences-Georges Moustaki.flac
     Pre-gap length  0:00:01.53
     Peak level 88.1 %
     Extraction speed 5.7 X
     Track quality 100.0 %
     Test CRC C26E0B7A
     Copy CRC C26E0B7A
     Accurately ripped (confidence 7)  [6E929C27]  (AR v1)
     Copy OK
Track  4
     Filename C:\Users\Utente\Desktop\George Moustaki\04-La ligne droite-Georges Moustaki.flac
     Pre-gap length  0:00:01.57
     Peak level 99.9 %
     Extraction speed 5.8 X
     Track quality 100.0 %
     Test CRC EAE3823D
     Copy CRC EAE3823D
     Accurately ripped (confidence 7)  [684910D8]  (AR v1)
     Copy OK
Track  5
     Filename C:\Users\Utente\Desktop\George Moustaki\05-Danse-Georges Moustaki.flac
     Pre-gap length  0:00:01.50
     Peak level 99.9 %
     Extraction speed 6.2 X
     Track quality 100.0 %
     Test CRC 67C9975E
     Copy CRC 67C9975E
     Accurately ripped (confidence 7)  [00CB8ABF]  (AR v1)
     Copy OK
Track  6
     Filename C:\Users\Utente\Desktop\George Moustaki\06-Ma liberte-Georges Moustaki.flac
     Pre-gap length  0:00:01.62
     Peak level 79.4 %
     Extraction speed 6.5 X
     Track quality 100.0 %
     Test CRC 85601763
     Copy CRC 85601763
     Accurately ripped (confidence 7)  [A7EB9F7A]  (AR v1)
     Copy OK
Track  7
     Filename C:\Users\Utente\Desktop\George Moustaki\07-La carte du tendre-Georges Moustaki.flac
     Pre-gap length  0:00:01.66
     Peak level 100.0 %
     Extraction speed 6.9 X
     Track quality 100.0 %
     Test CRC 66620636
     Copy CRC 66620636
     Accurately ripped (confidence 7)  [A57323E3]  (AR v1)
     Copy OK
Track  8
     Filename C:\Users\Utente\Desktop\George Moustaki\08-La philosophie Batucada-Georges Moustaki.flac
     Pre-gap length  0:00:01.66
     Peak level 99.9 %
     Extraction speed 7.1 X
     Track quality 100.0 %
     Test CRC 230FEB2C
     Copy CRC 230FEB2C
     Accurately ripped (confidence 7)  [156B4EC5]  (AR v1)
     Copy OK
Track  9
     Filename C:\Users\Utente\Desktop\George Moustaki\09-Ma solitude-Georges Moustaki.flac
     Pre-gap length  0:00:01.61
     Peak level 99.9 %
     Extraction speed 7.3 X
     Track quality 100.0 %
     Test CRC B8F6907B
     Copy CRC B8F6907B
     Accurately ripped (confidence 7)  [992F5AAE]  (AR v1)
     Copy OK
Track 10
     Filename C:\Users\Utente\Desktop\George Moustaki\10-Le facteur-Georges Moustaki.flac
     Pre-gap length  0:00:01.62
     Peak level 89.1 %
     Extraction speed 8.0 X
     Track quality 100.0 %
     Test CRC 3994D557
     Copy CRC 3994D557
     Accurately ripped (confidence 7)  [2A22FDC3]  (AR v1)
     Copy OK
Track 11
     Filename C:\Users\Utente\Desktop\George Moustaki\11-La marche de Sacco et Vanzetti-Georges Moustaki.flac
     Pre-gap length  0:00:01.66
     Peak level 99.9 %
     Extraction speed 8.1 X
     Track quality 100.0 %
     Test CRC D1705A5F
     Copy CRC D1705A5F
     Accurately ripped (confidence 7)  [AE0C2669]  (AR v1)
     Copy OK
Track 12
     Filename C:\Users\Utente\Desktop\George Moustaki\12-Les amis de Georges-Georges Moustaki.flac
     Pre-gap length  0:00:01.56
     Peak level 89.1 %
     Extraction speed 7.9 X
     Track quality 100.0 %
     Test CRC BFDFA017
     Copy CRC BFDFA017
     Accurately ripped (confidence 7)  [27EA5848]  (AR v1)
     Copy OK
Track 13
     Filename C:\Users\Utente\Desktop\George Moustaki\13-Balance-Georges Moustaki.flac
     Peak level 99.9 %
     Extraction speed 8.6 X
     Track quality 100.0 %
     Test CRC E5427B25
     Copy CRC E5427B25
     Accurately ripped (confidence 7)  [8CD5706C]  (AR v1)
     Copy OK
Track 14
     Filename C:\Users\Utente\Desktop\George Moustaki\14-Joseph-Georges Moustaki.flac
     Peak level 89.1 %
     Extraction speed 8.4 X
     Track quality 100.0 %
     Test CRC 7A5C1AF5
     Copy CRC 7A5C1AF5
     Accurately ripped (confidence 7)  [BF583E6D]  (AR v1)
     Copy OK
Track 15
     Filename C:\Users\Utente\Desktop\George Moustaki\15-Le meteque-Georges Moustaki.flac
     Pre-gap length  0:00:01.62
     Peak level 89.1 %
     Extraction speed 8.5 X
     Track quality 100.0 %
     Test CRC 86C53962
     Copy CRC 86C53962
     Accurately ripped (confidence 7)  [D5A013C0]  (AR v1)
     Copy OK
Track 16
     Filename C:\Users\Utente\Desktop\George Moustaki\16-Il est trop tard-Georges Moustaki.flac
     Pre-gap length  0:00:01.64
     Peak level 89.7 %
     Extraction speed 8.7 X
     Track quality 100.0 %
     Test CRC 6691DACD
     Copy CRC 6691DACD
     Accurately ripped (confidence 6)  [7B4AFC2F]  (AR v1)
     Copy OK
All tracks accurately ripped
No errors occurred
End of status report
==== Log checksum 8F6033F6A6AB82C2EE63FEC730DCC7E991B6C1DBC0B789FDB97CDEE004587D54 ====
------------------------------------------------------------
Exact Audio Copy V1.0 beta 3 from 29. August 2011
EAC extraction logfile from 22. January 2013, 16:39
Georges Moustaki / Master Serie
Used drive  : ATAPI   DVD A  DH24ABS   Adapter: 1  ID: 0
Read mode               : Secure
Utilize accurate stream : Yes
Defeat audio cache      : Yes
Make use of C2 pointers : No
Read offset correction                      : 6
Overread into Lead-In and Lead-Out          : No
Fill up missing offset samples with silence : Yes
Delete leading and trailing silent blocks   : No
Null samples used in CRC calculations       : Yes
Used interface                              : Native Win32 interface for Win NT & 2000
Gap handling                                : Appended to previous track
Used output format              : User Defined Encoder
Selected bitrate                : 768 kBit/s
Quality                         : High
Add ID3 tag                     : No
Command line compressor         : C:\Program Files (x86)\Exact Audio Copy\FLAC\FLAC.EXE
Additional command line options : -8 -V -T "ARTIST=%artist%" -T "TITLE=%title%" -T "ALBUM=%albumtitle%" -T "DATE=%year%" -T "TRACKNUMBER=%tracknr%" -T "TOTALTRACKS=%numtracks%" -T "GENRE=%genre%" -T "ALBUM ARTIST=%albumartist%" -T "ALBUMARTIST=%albumartist%" -T "COMMENT=EAC V1.0 beta 3, Secure Mode, Test & Copy, AccurateRip, FLAC -8" %source%
TOC of the extracted CD
     Track |   Start  |  Length  | Start sector | End sector
    ---------------------------------------------------------
        1  |  0:00.00 |  3:02.65 |         0    |    13714
        2  |  3:02.65 |  3:40.50 |     13715    |    30264
        3  |  6:43.40 |  3:27.70 |     30265    |    45859
        4  | 10:11.35 |  2:47.40 |     45860    |    58424
        5  | 12:59.00 |  2:59.72 |     58425    |    71921
        6  | 15:58.72 |  2:50.20 |     71922    |    84691
        7  | 18:49.17 |  3:03.25 |     84692    |    98441
        8  | 21:52.42 |  3:07.58 |     98442    |   112524
        9  | 25:00.25 |  2:59.52 |    112525    |   126001
       10  | 28:00.02 |  4:08.08 |    126002    |   144609
       11  | 32:08.10 |  3:12.52 |    144610    |   159061
       12  | 35:20.62 |  2:30.25 |    159062    |   170336
       13  | 37:51.12 |  3:18.70 |    170337    |   185256
       14  | 41:10.07 |  2:30.45 |    185257    |   196551
       15  | 43:40.52 |  2:32.23 |    196552    |   207974
       16  | 46:13.00 |  2:40.60 |    207975    |   220034
Track  1
     Filename C:\Users\Utente\Desktop\George Moustaki\01-Le temps de vivre-Georges Moustaki.flac
     Pre-gap length  0:00:02.00
     Peak level 99.9 %
     Extraction speed 4.7 X
     Track quality 100.0 %
     Test CRC CE620C88
     Copy CRC CE620C88
     Accurately ripped (confidence 7)  [119E0A22]  (AR v1)
     Copy OK
Track  2
     Filename C:\Users\Utente\Desktop\George Moustaki\02-Les eaux de mars-Georges Moustaki.flac
     Pre-gap length  0:00:01.60
     Peak level 99.9 %
     Extraction speed 5.3 X
     Track quality 100.0 %
     Test CRC E3DA2976
     Copy CRC E3DA2976
     Accurately ripped (confidence 7)  [5E4CECE8]  (AR v1)
     Copy OK
Track  3
     Filename C:\Users\Utente\Desktop\George Moustaki\03-Je ne sais pas ou tu commences-Georges Moustaki.flac
     Pre-gap length  0:00:01.53
     Peak level 88.1 %
     Extraction speed 5.7 X
     Track quality 100.0 %
     Test CRC C26E0B7A
     Copy CRC C26E0B7A
     Accurately ripped (confidence 7)  [6E929C27]  (AR v1)
     Copy OK
Track  4
     Filename C:\Users\Utente\Desktop\George Moustaki\04-La ligne droite-Georges Moustaki.flac
     Pre-gap length  0:00:01.57
     Peak level 99.9 %
     Extraction speed 5.8 X
     Track quality 100.0 %
     Test CRC EAE3823D
     Copy CRC EAE3823D
     Accurately ripped (confidence 7)  [684910D8]  (AR v1)
     Copy OK
Track  5
     Filename C:\Users\Utente\Desktop\George Moustaki\05-Danse-Georges Moustaki.flac
     Pre-gap length  0:00:01.50
     Peak level 99.9 %
     Extraction speed 6.2 X
     Track quality 100.0 %
     Test CRC 67C9975E
     Copy CRC 67C9975E
     Accurately ripped (confidence 7)  [00CB8ABF]  (AR v1)
     Copy OK
Track  6
     Filename C:\Users\Utente\Desktop\George Moustaki\06-Ma liberte-Georges Moustaki.flac
     Pre-gap length  0:00:01.62
     Peak level 79.4 %
     Extraction speed 6.5 X
     Track quality 100.0 %
     Test CRC 85601763
     Copy CRC 85601763
     Accurately ripped (confidence 7)  [A7EB9F7A]  (AR v1)
     Copy OK
Track  7
     Filename C:\Users\Utente\Desktop\George Moustaki\07-La carte du tendre-Georges Moustaki.flac
     Pre-gap length  0:00:01.66
     Peak level 100.0 %
     Extraction speed 6.9 X
     Track quality 100.0 %
     Test CRC 66620636
     Copy CRC 66620636
     Accurately ripped (confidence 7)  [A57323E3]  (AR v1)
     Copy OK
Track  8
     Filename C:\Users\Utente\Desktop\George Moustaki\08-La philosophie Batucada-Georges Moustaki.flac
     Pre-gap length  0:00:01.66
     Peak level 99.9 %
     Extraction speed 7.1 X
     Track quality 100.0 %
     Test CRC 230FEB2C
     Copy CRC 230FEB2C
     Accurately ripped (confidence 7)  [156B4EC5]  (AR v1)
     Copy OK
Track  9
     Filename C:\Users\Utente\Desktop\George Moustaki\09-Ma solitude-Georges Moustaki.flac
     Pre-gap length  0:00:01.61
     Peak level 99.9 %
     Extraction speed 7.3 X
     Track quality 100.0 %
     Test CRC B8F6907B
     Copy CRC B8F6907B
     Accurately ripped (confidence 7)  [992F5AAE]  (AR v1)
     Copy OK
Track 10
     Filename C:\Users\Utente\Desktop\George Moustaki\10-Le facteur-Georges Moustaki.flac
     Pre-gap length  0:00:01.62
     Peak level 89.1 %
     Extraction speed 8.0 X
     Track quality 100.0 %
     Test CRC 3994D557
     Copy CRC 3994D557
     Accurately ripped (confidence 7)  [2A22FDC3]  (AR v1)
     Copy OK
Track 11
     Filename C:\Users\Utente\Desktop\George Moustaki\11-La marche de Sacco et Vanzetti-Georges Moustaki.flac
     Pre-gap length  0:00:01.66
     Peak level 99.9 %
     Extraction speed 8.1 X
     Track quality 100.0 %
     Test CRC D1705A5F
     Copy CRC D1705A5F
     Accurately ripped (confidence 7)  [AE0C2669]  (AR v1)
     Copy OK
Track 12
     Filename C:\Users\Utente\Desktop\George Moustaki\12-Les amis de Georges-Georges Moustaki.flac
     Pre-gap length  0:00:01.56
     Peak level 89.1 %
     Extraction speed 7.9 X
     Track quality 100.0 %
     Test CRC BFDFA017
     Copy CRC BFDFA017
     Accurately ripped (confidence 7)  [27EA5848]  (AR v1)
     Copy OK
Track 13
     Filename C:\Users\Utente\Desktop\George Moustaki\13-Balance-Georges Moustaki.flac
     Peak level 99.9 %
     Extraction speed 8.6 X
     Track quality 100.0 %
     Test CRC E5427B25
     Copy CRC E5427B25
     Accurately ripped (confidence 7)  [8CD5706C]  (AR v1)
     Copy OK
Track 14
     Filename C:\Users\Utente\Desktop\George Moustaki\14-Joseph-Georges Moustaki.flac
     Peak level 89.1 %
     Extraction speed 8.4 X
     Track quality 100.0 %
     Test CRC 7A5C1AF5
     Copy CRC 7A5C1AF5
     Accurately ripped (confidence 7)  [BF583E6D]  (AR v1)
     Copy OK
Track 15
     Filename C:\Users\Utente\Desktop\George Moustaki\15-Le meteque-Georges Moustaki.flac
     Pre-gap length  0:00:01.62
     Peak level 89.1 %
     Extraction speed 8.5 X
     Track quality 100.0 %
     Test CRC 86C53962
     Copy CRC 86C53962
     Accurately ripped (confidence 7)  [D5A013C0]  (AR v1)
     Copy OK
Track 16
     Filename C:\Users\Utente\Desktop\George Moustaki\16-Il est trop tard-Georges Moustaki.flac
     Pre-gap length  0:00:01.64
     Peak level 89.7 %
     Extraction speed 8.7 X
     Track quality 100.0 %
     Test CRC 6691DACD
     Copy CRC 6691DACD
     Accurately ripped (confidence 6)  [7B4AFC2F]  (AR v1)
     Copy OK
All tracks accurately ripped
No errors occurred
End of status report
==== Log checksum 8F6033F6A6AB82C2EE63FEC730DCC7E991B6C1DBC0B789FDB97CDEE004587D54 ====

Отчёт auCDtect Task manager:

Код:
-----------------------
DON'T MODIFY THIS FILE
-----------------------
PERFORMER: auCDtect Task Manager, ver. 1.5.1RC6 build 1.5.1.7
Copyright (c) 2008-2010 y-soft. All rights reserved
http://y-soft.org
ANALYZER: auCDtect: CD records authenticity detector, version 0.8.2
Copyright (c) 2004 Oleg Berngardt. All rights reserved.
Copyright (c) 2004 Alexander Djourik. All rights reserved.
FILE: 16-Il est trop tard-Georges Moustaki.flac
  Size: 16963717 Hash: 150D4BCE1F4A199C486DEACE17F39174 Accuracy: -m0
  Conclusion: CDDA 100%
  Signature: 5A74CCB8AA5388D2D7935D81073E01B20F7EA825
FILE: 15-Le meteque-Georges Moustaki.flac
  Size: 15819308 Hash: 27F5D7D20782E2B1D0762363FD3586AC Accuracy: -m0
  Conclusion: CDDA 100%
  Signature: 8DA936D128D3A93181162AF5FBC5336B48CF7237
FILE: 14-Joseph-Georges Moustaki.flac
  Size: 15511494 Hash: 1AE3D859052D97916FEB25D78AA2CE4A Accuracy: -m0
  Conclusion: CDDA 100%
  Signature: 85D54CF3A91E0481AD15B34D6FE12ABA0CC5A4FE
FILE: 13-Balance-Georges Moustaki.flac
  Size: 22135976 Hash: 0E4957B0E0A93305FB5F2B3AAC759701 Accuracy: -m0
  Conclusion: CDDA 100%
  Signature: 9B360AE934A47CA9CEF8F8A4465004DBF2F62AA5
FILE: 12-Les amis de Georges-Georges Moustaki.flac
  Size: 15755543 Hash: 235A20E404D32B022745A5A7EC439994 Accuracy: -m0
  Conclusion: CDDA 99%
  Signature: 1B9DBCCD1C17CD4995EE5D1CC786AFEF3C39D415
FILE: 11-La marche de Sacco et Vanzetti-Georges Moustaki.flac
  Size: 18687867 Hash: 10F0BA9164A270B2AC7316DC80BFAEC3 Accuracy: -m0
  Conclusion: CDDA 100%
  Signature: D3DCCCEF9DC16F93035AB9D354EBB9B3BD9D74A6
FILE: 10-Le facteur-Georges Moustaki.flac
  Size: 25762645 Hash: 468241EEB57CF1AFF25D8041F5338478 Accuracy: -m0
  Conclusion: CDDA 100%
  Signature: B68336E4AFC1DFD5F2BCF604E0BBC5E1378645AE
FILE: 09-Ma solitude-Georges Moustaki.flac
  Size: 18162633 Hash: 87A04A30DC9C5FB5476930D5271C29F4 Accuracy: -m0
  Conclusion: CDDA 100%
  Signature: DE9E0F35E5537872B89104D1413BB7C80AF4DF4D
FILE: 08-La philosophie Batucada-Georges Moustaki.flac
  Size: 21051831 Hash: 1D023A516EEAE4C3E52174D561361F25 Accuracy: -m0
  Conclusion: CDDA 100%
  Signature: 5D479F45ACF53B7CF356BD12C2EC5E8318E49AD2
FILE: 07-La carte du tendre-Georges Moustaki.flac
  Size: 18397399 Hash: 80D62943C695F8796D2A237A6D2168FC Accuracy: -m0
  Conclusion: CDDA 100%
  Signature: 4467671B51B7E3D57723C47EC2F6E281CDED0AD3
FILE: 06-Ma liberte-Georges Moustaki.flac
  Size: 17805925 Hash: 49A2E2BCB7D0D04C550599E4640870DD Accuracy: -m0
  Conclusion: CDDA 100%
  Signature: 31DDC16DFD28211AF0CBDBD36A241E249F60172C
FILE: 05-Danse-Georges Moustaki.flac
  Size: 20014325 Hash: 18C43F7B5E044FB968F4F041B20070D1 Accuracy: -m0
  Conclusion: CDDA 100%
  Signature: DA5E73601306CED1EE9D4A47B3C5D4E2946FA6B6
FILE: 04-La ligne droite-Georges Moustaki.flac
  Size: 17775402 Hash: 7E719456E64FB994A70FED06AC1C1794 Accuracy: -m0
  Conclusion: CDDA 100%
  Signature: B0D50CCA57D5FC02C5B326F70E134921C968FB89
FILE: 03-Je ne sais pas ou tu commences-Georges Moustaki.flac
  Size: 20432470 Hash: 0FC218F65B9BAA74DF37116897212327 Accuracy: -m0
  Conclusion: CDDA 100%
  Signature: 3CDD2E22B35EA1C1D9B8719629B358D32EEC8295
FILE: 02-Les eaux de mars-Georges Moustaki.flac
  Size: 24648798 Hash: 41B84EA0E946FADBBD8D9156CA450506 Accuracy: -m0
  Conclusion: CDDA 99%
  Signature: E4E9D2C88FB7B292F308D2F3C8EE24346C975144
FILE: 01-Le temps de vivre-Georges Moustaki.flac
  Size: 18388526 Hash: D3AF22AE90532119C2A61CD039126C06 Accuracy: -m0
  Conclusion: CDDA 100%
  Signature: 8745663C369B29265EBF6E91171DA59803DFCD47
Время раздачи: 24/7
Other forum [Profile] [PM]

Dracula

Longevity: 5 years 7 months

Posts: 10301

Торрент-статистика

Post 25-May-2013 07:19 (after 7 hours)

Топик был перенесен из форума Шансон в форум Music from other genres (LOSSLESS)


p2000s
 
Display posts from previous:    
Reply to topic

The time now is: Today 20:13

All times are GMT + 3 Hours



You cannot post new topics in this forum
You cannot reply to topics in this forum
You cannot edit your posts in this forum
You cannot delete your posts in this forum
You cannot vote in polls in this forum
You cannot attach files in this forum
You cannot download files in this forum