Today is a free download without charge Download

Meller - Anthology (2012) [FLAC|Lossless]

Reply to topic
 
Author
Message

UndegraundMen ®

Longevity: 8 years 7 months

Posts: 25145

Торрент-статистика

Post 27-May-2013 00:02

[Quote]

Meller - Anthology (2012)- Год: 2012
Жанр: Progressive Trance, Progressive House
Продолжительность: 01:16:54
Страна: Chile
Лейбл: Ovnimoon Records ‎– OVNICD038
Кодек: FLAC(tracks+.cue)
Битрейт: Lossless-Трек лист:
01. Meller - Lemon Goa (6:39)
02. Meller - Uppercut (7:20)
03. Meller - Sparky (7:05)
04. Hypnotic Duo - Deliver (Meller RMX) (7:05)
05. SNK - Ryan Air (Meller RMX) (6:37)
06. Tvardovsky - Paradise (Meller RMX) (8:00)
07. Meller - Synthesized (6:43)
08. Meller - Voodoo Club (7:12)
09. Meller - Poke (6:45)
10. Hypnotic Duo - All Over Again (Meller RMX) (6:49)

Отчёт ЕАС:

Код:
Exact Audio Copy V1.0 beta 3 from 29. August 2011
EAC extraction logfile from 9. May 2013, 20:16
Meller / Anthology 2012
Used drive  : SlimtypeDVD A DS8A5SH   Adapter: 0  ID: 0
Read mode               : Secure
Utilize accurate stream : Yes
Defeat audio cache      : Yes
Make use of C2 pointers : No
Read offset correction                      : 6
Overread into Lead-In and Lead-Out          : No
Fill up missing offset samples with silence : Yes
Delete leading and trailing silent blocks   : No
Null samples used in CRC calculations       : Yes
Used interface                              : Native Win32 interface for Win NT & 2000
Gap handling                                : Appended to previous track
Used output format              : User Defined Encoder
Selected bitrate                : 1024 kBit/s
Quality                         : High
Add ID3 tag                     : No
Command line compressor         : C:\Program Files (x86)\Exact Audio Copy\FLAC\FLAC.EXE
Additional command line options : -V -8 -T "Genre=%genre%" -T "Artist=%artist%" -T "Title=%title%" -T "Album=%albumtitle%" -T "Date=%year%" -T "Tracknumber=%tracknr%" -T "Comment=%comment%" %source%
TOC of the extracted CD
     Track |   Start  |  Length  | Start sector | End sector
    ---------------------------------------------------------
        1  |  0:00.00 |  6:39.74 |         0    |    29998
        2  |  6:39.74 |  7:20.22 |     29999    |    63020
        3  | 14:00.21 |  7:05.54 |     63021    |    94949
        4  | 21:06.00 |  7:05.54 |     94950    |   126878
        5  | 28:11.54 |  6:37.72 |    126879    |   156725
        6  | 34:49.51 |  8:00.00 |    156726    |   192725
        7  | 42:49.51 |  6:43.04 |    192726    |   222954
        8  | 49:32.55 |  7:12.52 |    222955    |   255406
        9  | 56:45.32 |  6:45.00 |    255407    |   285781
       10  | 63:30.32 |  6:49.59 |    285782    |   316515
Track  1
     Filename F:\Ryzhik234\Meller - Anthology 2012 (OVNICD038) 2012 FLAC\01. Meller - Lemon Goa.wav
     Pre-gap length  0:00:02.00
     Peak level 99.4 %
     Extraction speed 2.1 X
     Track quality 100.0 %
     Test CRC 7934EEA9
     Copy CRC 7934EEA9
     Track not present in AccurateRip database
     Copy OK
Track  2
     Filename F:\Ryzhik234\Meller - Anthology 2012 (OVNICD038) 2012 FLAC\02. Meller - Uppercut.wav
     Peak level 99.3 %
     Extraction speed 2.4 X
     Track quality 100.0 %
     Test CRC 8E549D50
     Copy CRC 8E549D50
     Track not present in AccurateRip database
     Copy OK
Track  3
     Filename F:\Ryzhik234\Meller - Anthology 2012 (OVNICD038) 2012 FLAC\03. Meller - Sparky.wav
     Peak level 99.3 %
     Extraction speed 2.7 X
     Track quality 100.0 %
     Test CRC C19B91F4
     Copy CRC C19B91F4
     Track not present in AccurateRip database
     Copy OK
Track  4
     Filename F:\Ryzhik234\Meller - Anthology 2012 (OVNICD038) 2012 FLAC\04. Hypnotic Duo - Deliver (Meller RMX).wav
     Peak level 99.2 %
     Extraction speed 2.9 X
     Track quality 100.0 %
     Test CRC E82E4937
     Copy CRC E82E4937
     Track not present in AccurateRip database
     Copy OK
Track  5
     Filename F:\Ryzhik234\Meller - Anthology 2012 (OVNICD038) 2012 FLAC\05. SNK - Ryan Air (Meller RMX).wav
     Peak level 99.3 %
     Extraction speed 3.2 X
     Track quality 100.0 %
     Test CRC 8C9A9BB0
     Copy CRC 8C9A9BB0
     Track not present in AccurateRip database
     Copy OK
Track  6
     Filename F:\Ryzhik234\Meller - Anthology 2012 (OVNICD038) 2012 FLAC\06. Tvardovsky - Paradise (Meller RMX).wav
     Peak level 98.7 %
     Extraction speed 3.4 X
     Track quality 100.0 %
     Test CRC AFEDEA38
     Copy CRC AFEDEA38
     Track not present in AccurateRip database
     Copy OK
Track  7
     Filename F:\Ryzhik234\Meller - Anthology 2012 (OVNICD038) 2012 FLAC\07. Meller - Synthesized.wav
     Peak level 99.0 %
     Extraction speed 3.3 X
     Track quality 99.9 %
     Test CRC 4B4E572D
     Copy CRC 4B4E572D
     Track not present in AccurateRip database
     Copy OK
Track  8
     Filename F:\Ryzhik234\Meller - Anthology 2012 (OVNICD038) 2012 FLAC\08. Meller - Voodoo Club.wav
     Peak level 99.3 %
     Extraction speed 3.8 X
     Track quality 100.0 %
     Test CRC 05A647B0
     Copy CRC 05A647B0
     Track not present in AccurateRip database
     Copy OK
Track  9
     Filename F:\Ryzhik234\Meller - Anthology 2012 (OVNICD038) 2012 FLAC\09. Meller - Poke.wav
     Peak level 99.4 %
     Extraction speed 3.9 X
     Track quality 100.0 %
     Test CRC CAE92CE0
     Copy CRC CAE92CE0
     Track not present in AccurateRip database
     Copy OK
Track 10
     Filename F:\Ryzhik234\Meller - Anthology 2012 (OVNICD038) 2012 FLAC\10. Hypnotic Duo - All Over Again (Meller RMX).wav
     Peak level 99.3 %
     Extraction speed 4.1 X
     Track quality 100.0 %
     Test CRC 41AFC103
     Copy CRC 41AFC103
     Track not present in AccurateRip database
     Copy OK
None of the tracks are present in the AccurateRip database
No errors occurred
End of status report
==== Log checksum DC925AD51CAF90D092A15A415AD3836B0E7839EC109CAAA140117AE0342F4B28 ====

-

Отчёт auCDtect Task manager:

Код:
-----------------------
DON'T MODIFY THIS FILE
-----------------------
PERFORMER: auCDtect Task Manager, ver. 1.5.1RC4 build 1.5.1.5
Copyright (c) 2008-2010 y-soft. All rights reserved
http://y-soft.org
ANALYZER: auCDtect: CD records authenticity detector, version 0.8.2
Copyright (c) 2004 Oleg Berngardt. All rights reserved.
Copyright (c) 2004 Alexander Djourik. All rights reserved.
FILE: 10. Hypnotic Duo - All Over Again (Meller RMX).flac
  Size: 42806548 Hash: 2BB071A88E33DE1B3FB222B985DD26FA Accuracy: -m0
  Conclusion: CDDA 100%
  Signature: 3F98B0DB9ABB2BC20A2CE855F55719715A91D3CC
FILE: 09. Meller - Poke.flac
  Size: 40839737 Hash: 133B5920E88FF8710D7569365C6C8E6D Accuracy: -m0
  Conclusion: MPEG 95%
  Signature: ACC32F976859578B34372262BC78AB176FE7D2D4
FILE: 08. Meller - Voodoo Club.flac
  Size: 43793962 Hash: 4E0821F48ABF489A7D56FE243756875D Accuracy: -m0
  Conclusion: CDDA 100%
  Signature: 8A0091B913A52E26F02968C385D0886CD37380C9
FILE: 07. Meller - Synthesized.flac
  Size: 43602505 Hash: DCAA4E3F8DE93F8F7A0D60E22C6D573A Accuracy: -m0
  Conclusion: CDDA 100%
  Signature: D4C01F2FE8EF10E6D26978F6FB19E790E8D00349
FILE: 06. Tvardovsky - Paradise (Meller RMX).flac
  Size: 54244712 Hash: 6A11A240868F86BE8FE63E6B0A5BB12E Accuracy: -m0
  Conclusion: CDDA 100%
  Signature: 2EAFE476C8B05E674F6136FA58968D52E877CA87
FILE: 05. SNK - Ryan Air (Meller RMX).flac
  Size: 43641829 Hash: E7104047E482C495CCE6F2EED1CCAC37 Accuracy: -m0
  Conclusion: CDDA 100%
  Signature: 83E4227839CFBB0F9F6BF0565A28057794F36829
FILE: 04. Hypnotic Duo - Deliver (Meller RMX).flac
  Size: 49996703 Hash: C4AC8CE00D73D39BE7D4E62D749B6476 Accuracy: -m0
  Conclusion: CDDA 100%
  Signature: 8F507D131D3B0EE6A30F0ABCFE0F8C79153A983B
FILE: 03. Meller - Sparky.flac
  Size: 46592388 Hash: 881054B292F399F7FAEA0F930F8E854C Accuracy: -m0
  Conclusion: CDDA 100%
  Signature: 62B28BE39C8A51DD88A223EC76D73C6AF905D9B2
FILE: 02. Meller - Uppercut.flac
  Size: 45248796 Hash: 4FC4F6547E8361E7E78BB27D63ED7550 Accuracy: -m0
  Conclusion: CDDA 100%
  Signature: A8B83FBED371D4D2E80296AC6D05B4ABF0348E55
FILE: 01. Meller - Lemon Goa.flac
  Size: 43362432 Hash: 1D9BBA9227A02CCD8D84339ECCF30F30 Accuracy: -m0
  Conclusion: CDDA 100%
  Signature: 1931B8E752AB4171EBAEEED01510B125EEB18457

-

Спектры

         

-

youtube

-Время раздачи: До пяти сидов.
Other forum [Profile] [PM]
Display posts from previous:    
Reply to topic

The time now is: Today 16:31

All times are GMT + 3 Hours



You cannot post new topics in this forum
You cannot reply to topics in this forum
You cannot edit your posts in this forum
You cannot delete your posts in this forum
You cannot vote in polls in this forum
You cannot attach files in this forum
You cannot download files in this forum