Today is a free download without charge Download

24 часа / Trapped (Луис Мандоки) (Триллер, Драма, Криминал, 2002) HDRip

Reply to topic
 
Author
Message

Omen ®

Longevity: 6 years 11 months

Posts: 181090

Торрент-статистика

Post 28-May-2013 14:30

[Quote]

24 часа / Trapped- Русское название: 24 часа
Оригинальное название: Trapped
Год выпуска: 2002
Жанр: Триллер, Драма, Криминал
Описание фильма:
Возможно, идеальным можно назвать то преступление, которое осталось для всех неизвестным. Трое преступников – супруги Хики Джо и Черил и кузен Джой Марвин настолько хорошо знают среду, в которой живут, что сумели разработать безукоризненный план вымогательства денег у состоятельных семей. Они действуют уверенно, умело и успешно, и настолько хорошо заметают свои следы, что после них остаются только перепуганные жертвы, которые предпочитают хранить молчание, ибо рады уже тому, что остались живы…

Режиссер: Луис Мандоки
Актеры: Шарлиз Терон, Кевин Бэйкон, Кортни Лав, Стюарт Таунсенд, Прюитт Тэйлор Винс, Дакота Фаннинг, Грегори Беннетт, Коллин Кэмп
Продолжительность: 01:45:46
Перевод: Профессиональный (полное дублирование)

___________________________
Видеокодек: Xvid
Битрейт видео: ~1853 Kbps
Размер кадра: 720x400
Качество видео: HDRip с [BDRip 1080p]
Аудио 1: AC3, 6 ch, 448 Kbps..........Профессиональный (полное дублирование)
Аудио 2: AC3, 6 ch, 448 Kbps..........оригинальная Eng.
-

MI

General
Complete name : Trapped.2002.НDRip.avi
Format : AVI
Format/Info : Audio Video Interleave
Format profile : OpenDML
File size : 2.04 GiB
Duration : 1h 45mn
Overall bit rate : 2 767 Kbps
Writing application : VirtualDubMod 1.5.10.2 (build 2542/release)
Writing library : VirtualDubMod build 2542/release
Video
ID : 0
Format : MPEG-4 Visual
Format profile : Advanced [email protected]
Format settings, BVOP : 1
Format settings, QPel : No
Format settings, GMC : No warppoints
Format settings, Matrix : Custom
Codec ID : XVID
Codec ID/Hint : XviD
Duration : 1h 45mn
Bit rate : 1 853 Kbps
Width : 720 pixels
Height : 400 pixels
Display aspect ratio : 16:9
Frame rate : 23.976 fps
Color space : YUV
Chroma subsampling : 4:2:0
Bit depth : 8 bits
Scan type : Progressive
Compression mode : Lossy
Bits/(Pixel*Frame) : 0.268
Stream size : 1.37 GiB (67%)
Writing library : XviD 73
Audio #1
ID : 1
Format : AC-3
Format/Info : Audio Coding 3
Mode extension : CM (complete main)
Format settings, Endianness : Big
Codec ID : 2000
Duration : 1h 45mn
Bit rate mode : Constant
Bit rate : 448 Kbps
Channel(s) : 6 channels
Channel positions : Front: L C R, Side: L R, LFE
Sampling rate : 48.0 KHz
Bit depth : 16 bits
Compression mode : Lossy
Delay relative to video : 22ms
Stream size : 339 MiB (16%)
Alignment : Split accross interleaves
Interleave, duration : 42 ms (1.00 video frame)
Interleave, preload duration : 500 ms
Audio #2
ID : 2
Format : AC-3
Format/Info : Audio Coding 3
Mode extension : CM (complete main)
Format settings, Endianness : Big
Codec ID : 2000
Duration : 1h 45mn
Bit rate mode : Constant
Bit rate : 448 Kbps
Channel(s) : 6 channels
Channel positions : Front: L C R, Side: L R, LFE
Sampling rate : 48.0 KHz
Bit depth : 16 bits
Compression mode : Lossy
Stream size : 339 MiB (16%)
Alignment : Split accross interleaves
Interleave, duration : 42 ms (1.00 video frame)
Interleave, preload duration : 500 ms
-Скриншоты:
       
         
Other forum [Profile] [PM]
Display posts from previous:    
Reply to topic

The time now is: Today 07:02

All times are GMT + 3 Hours



You cannot post new topics in this forum
You cannot reply to topics in this forum
You cannot edit your posts in this forum
You cannot delete your posts in this forum
You cannot vote in polls in this forum
You cannot attach files in this forum
You cannot download files in this forum