Today is a free download without charge Download

Брестская крепость (Александр Котт) (Драма, Военный, 2010) [720p] BDRip

Reply to topic
 
Author
Message

Omen ®

Longevity: 7 years

Posts: 181090

Торрент-статистика

Post 22-Jun-2013 18:56

[Quote]

Брестская крепость
«Я умираю, но не сдаюсь!»
- Русское название: Брестская крепость
Год выпуска: 2010
Производство: Централ Партнершип / Беларусьфильм - Россия, Беларусь
Жанр: Драма, Военный
Описание фильма:
Фильм рассказывает о героической обороне Брестской крепости, которая приняла на себя первый удар немецко-фашистских захватчиков 22 июня 1941 года. С документальной точностью описываются события, происходившие в первые дни обороны. Фильм рассказывает о главных трёх очагах сопротивления, возглавляемых командиром полка Петром Гавриловым, комиссаром Ефимом Фоминым и начальником 9-й погранзаставы Андреем Кижеватовым.
Режиссер: Александр Котт
Продюсер: Игорь Угольников, Рубен Дишдишян, Владимир Заметалин
Актеры: Павел Деревянко, Андрей Мерзликин, Александр Коршунов, Александр Копашов, Евгений Цыганов, Яна Есипович
Продолжительность: 02:18:19
Перевод: Оригинал [Лицензия]
Субтитры: Вшитые отключаемые
Язык субтитров: Английский

Дата мировой премьеры: 22 июня 2010, ...
Дата российской премьеры: 4 ноября 2010, «Централ Партнершип»
Дата выхода DVD релиза: 7 декабря 2010, «Флагман-Трейд», ...
Дата выхода Blu-Ray релиза: 8 февраля 2011, «Флагман-Трейд», ...
Видеокодек: MPEG-4 AVC/H.264
Битрейт видео: ~7705 Кбит/сек
Размер кадра: 1280 x 544
Качество видео: BDRip
Аудио: DTS 5.1, 48,0 КГц, ~1510 Кбит/сек

MediaInfo:

Общее
Уникальный идентификатор : 234487782243260292704101036088170410038 (0xB068B4429E7503C98A7BC8E4EE647036)
Полное имя : H:\Fortress.of.War.720p.BluRay.mkv
Формат : Matroska
Версия формата : Version 2
Размер файла : 9,08 Гбайт
Продолжительность : 2 ч. 18 м.
Общий поток : 9402 Кбит/сек
Дата кодирования : UTC 2012-06-26 13:54:06
Программа кодирования : mkvmerge v5.6.0 ('Kenya Kane') built on May 27 2012 16:44:04
Библиотека кодирования : libebml v1.2.3 + libmatroska v1.3.0
Видео
Идентификатор : 1
Формат : AVC
Формат/Информация : Advanced Video Codec
Профиль формата : [url=mailto:[email protected]][email protected][/url]
Параметр CABAC формата : Да
Параметр ReFrames формата : 7 кадров
Идентификатор кодека : V_MPEG4/ISO/AVC
Продолжительность : 2 ч. 18 м.
Битрейт : 7705 Кбит/сек
Ширина : 1280 пикселей
Высота : 544 пикселя
Соотношение сторон : 2,35:1
Частота кадров : 24,000 кадра/сек
Цветовое пространство : YUV
Субдискретизация насыщенности : 4:2:0
Битовая глубина : 8 бит
Тип развёртки : Прогрессивная
Бит/(Пиксели*Кадры) : 0.461
Размер потока : 7,44 Гбайт (82%)
Библиотека кодирования : x264 core 120 r2164 da19765
Настройки программы : cabac=1 / ref=7 / deblock=1:-3:-3 / analyse=0:0x111 / me=umh / subme=11 / psy=1 / psy_rd=1.00:0.00 / mixed_ref=0 / me_range=32 / chroma_me=1 / trellis=2 / 8x8dct=0 / cqm=0 / deadzone=21,11 / fast_pskip=0 / chroma_qp_offset=-2 / threads=18 / sliced_threads=0 / nr=0 / decimate=1 / interlaced=0 / bluray_compat=0 / constrained_intra=0 / bframes=7 / b_pyramid=2 / b_adapt=2 / b_bias=0 / direct=1 / weightb=0 / open_gop=0 / weightp=2 / keyint=240 / keyint_min=24 / scenecut=0 / intra_refresh=0 / rc_lookahead=0 / rc=crf / mbtree=0 / crf=17.3 / qcomp=0.60 / qpmin=0 / qpmax=69 / qpstep=4 / vbv_maxrate=50000 / vbv_bufsize=62500 / crf_max=0.0 / nal_hrd=none / ip_ratio=1.40 / pb_ratio=1.30 / aq=1:0.80
Язык : Russian
Default : Да
Forced : Нет
Аудио
Идентификатор : 2
Формат : DTS
Формат/Информация : Digital Theater Systems
Идентификатор кодека : A_DTS
Продолжительность : 2 ч. 18 м.
Вид битрейта : Постоянный
Битрейт : 1510 Кбит/сек
Каналы : 6 каналов
Расположение каналов : Front: L C R, Side: L R, LFE
Частота : 48,0 КГц
Битовая глубина : 16 бит
Метод сжатия : С потерями
Размер потока : 1,46 Гбайт (16%)
Заголовок : DTS 5.1 @ 1536 kbps
Язык : Russian
Default : Да
Forced : Нет
Текст
Идентификатор : 3
Формат : UTF-8
Идентификатор кодека : S_TEXT/UTF8
Идентификатор кодека/Информация : UTF-8 Plain Text
Заголовок : Full
Язык : English
Default : Нет
Forced : Нет
Меню
00:00:00.000 : ru:1. Городской Парк, 1941
00:11:06.000 : ru:2. Слухи о войне
00:21:40.000 : ru:3. 03:58 22 июня 1941
00:31:29.000 : ru:4. Крепость. Волынское укрепление
00:44:08.000 : ru:5. Спасение людей из госпиталя
01:00:52.542 : ru:6. Первое немецкое отступление
01:15:30.000 : ru:7. 24 июня
01:25:48.000 : ru:8. Доставка приказа
01:33:54.000 : ru:9. Массовый побег
01:44:01.000 : ru:10. Аня и Катя
02:04:28.333 : ru:11. Выживание
02:13:46.000 : ru:12. Заключительные Титры

Знаете ли вы, что...

Длительность телевизионной версии - 178 минут.
  • В фильме показана бомбардировка крепости в первый же день войны. На самом деле, первая бомбардировка крепости была произведена 29 июня 1941 года, до этого бомбардировщики лишь пролетали над ней, следуя на другие объекты.

Награды и премии:

 
Скриншоты:
         
Other forum [Profile] [PM]
Display posts from previous:    
Reply to topic

The time now is: Today 22:09

All times are GMT + 3 Hours



You cannot post new topics in this forum
You cannot reply to topics in this forum
You cannot edit your posts in this forum
You cannot delete your posts in this forum
You cannot vote in polls in this forum
You cannot attach files in this forum
You cannot download files in this forum