Today is a free download without charge Download

Криминальные обстоятельства (Владимир Карабанов) (Комедия 2011) SATRip

Reply to topic
 
Author
Message

Omen ®

Longevity: 7 years 9 months

Posts: 181087

Торрент-статистика

Post 01-Jul-2013 12:13

[Quote]

Криминальные обстоятельства - Год выпуска: 2011
Жанр: Комедия
Описание фильма:
События фильма происходят в разгар экономического кризиса, из-за которого герои решаются на крайний шаг — похищение людей с целью выкупа. Милиционер крадет жену бандита, бандит — дочку банкира, банкир — дочку милиционера. В итоге все собираются в одном месте и пытаются разобраться в сложившейся путанице.
Режиссер: Владимир Карабанов
Актеры: Иван Охлобыстин, Михаил Ефремов, Раиса Рязанова, Александр Адабашьян, Даниил Спиваковский, Анна Терехова
Продолжительность: 01:22:21
Качество видео: SATRip

Видеокодек: Xvid
Битрейт видео: ~2177 кб/с
Размер кадра: 720x320
Аудиокодек: MP3 ,2ch
Битрейт аудио: 192 кб/с

MediaInfo

Код:
Общее
Полное имя                               : D:\торрент\Kriminalnye.obstoyatelstwa.2011.avi
Формат                                   : AVI
Формат/Информация                        : Audio Video Interleave
Размер файла                             : 1,37 Гбайт
Продолжительность                        : 1 ч. 22 м.
Общий поток                              : 2377 Кбит/сек
Программа кодирования                    : VirtualDubMod 1.5.4.1 (build 2178/release)
Библиотека кодирования                   : VirtualDubMod build 2178/release
Видео
Идентификатор                            : 0
Формат                                   : MPEG-4 Visual
Профиль формата                          : Advanced [email protected]
Параметр BVOP формата                    : 1
Параметр QPel формата                    : Нет
Параметр GMC формата                     : Без точки перехода
Параметр матрицы формата                 : Выборочная
Идентификатор кодека                     : XVID
Идентификатор кодека/Подсказка           : XviD
Продолжительность                        : 1 ч. 22 м.
Битрейт                                  : 2178 Кбит/сек
Ширина                                   : 720 пикселей
Высота                                   : 320 пикселей
Соотношение сторон                       : 2,25:1
Частота кадров                           : 25,000 кадров/сек
Цветовое пространство                    : YUV
Субдискретизация насыщенности            : 4:2:0
Битовая глубина                          : 8 бит
Тип развёртки                            : Прогрессивная
Метод сжатия                             : С потерями
Бит/(Пиксели*Кадры)                      : 0.378
Размер потока                            : 1,25 Гбайт (92%)
Библиотека кодирования                   : XviD 64
Аудио
Идентификатор                            : 1
Формат                                   : MPEG Audio
Версия формата                           : Version 1
Профиль формата                          : Layer 3
Режим                                    : Joint stereo
Расширение режима                        : MS Stereo
Идентификатор кодека                     : 55
Идентификатор кодека/Подсказка           : MP3
Продолжительность                        : 1 ч. 22 м.
Вид битрейта                             : Постоянный
Битрейт                                  : 192 Кбит/сек
Каналы                                   : 2 канала
Частота                                  : 48,0 КГц
Метод сжатия                             : С потерями
Размер потока                            : 113 Мбайт (8%)
Выравнивание                             : Соединение по промежуткам
Продолжительность промежутка             : 80  мс. (2,00 видеокадра)
Время предзагрузки промежутка            : 504  мс.
Библиотека кодирования                   : LAME3.97
Настройки программы                      : -m j -V 4 -q 2 -lowpass 18.6 -b 192
Скриншоты:
       
Other forum [Profile] [PM]
Similar theme
Forum Topic Author Torrent Replies Last Post
./templates/default/images/folder_dl.gif Фильмы 2011-2020 Четверо против банка / Vier gegen die Bank (Вольфганг Петерсен / Wolfgang Petersen) [2016, комедия, криминал, BDRip-AVC] Dub [iTunes] Anonymous
1 | 0

0 | 2483

22

2018-01-31 13:58
Anonymous Latest
./templates/default/images/folder_dl.gif Отечественные cериалы Ментовские войны (Егор Абросимов, Алексей Богданов, Алан Дзоциев, Сергей Раевский) (Сезон 01–11 + 2 Эпилога + 4 фильма) [2004–2018, криминал, боевик, детектив, SATRip] DED
1 | 0

0 | 603

0

2020-03-02 16:37
DED Latest
./templates/default/images/folder_dl.gif Отечественные cериалы Горячая точка (Денис Карро) [Серии 1–24 из 24] [2019/2020, криминальная драма, WEBRip 720p] DED
1 | 0

0 | 728

1

2020-03-06 16:59
DED Latest
./templates/default/images/folder_dl.gif Фильмы 2011-2020 Киллер / Killerman (Малик Бейдер) [2019 г., боевик, триллер, драма, криминал, детектив, HDRip]MVO | Онлайн кинотеатр kilmister777
1 | 0

0 | 1028

0

2020-07-12 20:37
kilmister777 Latest
./templates/default/images/folder_dl.gif Новинки (HD|DVD|BD|WEB|TV|SAT|PDTV|-Rip) Махинаторы / Schemers (Дэйв Маклин) [2020 г., комедия, биография, криминал, WEB-DLRip ]MVO| iTunes kilmister777
1 | 0

0 | 709

0

2020-08-01 12:33
kilmister777 Latest
./templates/default/images/folder_dl.gif Отечественные cериалы Водоворот (Андрей Загидуллин) [01-08 из 08] [2020 г., детектив, драма, криминал, триллер, WEBRip ] kilmister777
1 | 0

0 | 479

0

2020-08-09 13:24
kilmister777 Latest
./templates/default/images/folder_dl.gif Иностранные мультфильмы Дефстроук: Рыцари и Драконы / Deathstroke: Knights & Dragons (Санг Жин Ан) [2020 г., мультфильм, боевик, криминал, WEBRip]MVO | NewComers kilmister777
1 | 0

0 | 34

0

Yesterday 09:09
kilmister777 Latest
Display posts from previous:    
Reply to topic

The time now is: Today 13:26

All times are GMT + 3 Hours



You cannot post new topics in this forum
You cannot reply to topics in this forum
You cannot edit your posts in this forum
You cannot delete your posts in this forum
You cannot vote in polls in this forum
You cannot attach files in this forum
You cannot download files in this forum