Today is a free download without charge Download

Криминальные обстоятельства (Владимир Карабанов) (Комедия 2011) SATRip

Reply to topic
 
Author
Message

Omen ®

Longevity: 7 years

Posts: 181090

Торрент-статистика

Post 01-Jul-2013 12:13

[Quote]

Криминальные обстоятельства - Год выпуска: 2011
Жанр: Комедия
Описание фильма:
События фильма происходят в разгар экономического кризиса, из-за которого герои решаются на крайний шаг — похищение людей с целью выкупа. Милиционер крадет жену бандита, бандит — дочку банкира, банкир — дочку милиционера. В итоге все собираются в одном месте и пытаются разобраться в сложившейся путанице.
Режиссер: Владимир Карабанов
Актеры: Иван Охлобыстин, Михаил Ефремов, Раиса Рязанова, Александр Адабашьян, Даниил Спиваковский, Анна Терехова
Продолжительность: 01:22:21
Качество видео: SATRip

Видеокодек: Xvid
Битрейт видео: ~2177 кб/с
Размер кадра: 720x320
Аудиокодек: MP3 ,2ch
Битрейт аудио: 192 кб/с

MediaInfo

Код:
Общее
Полное имя                               : D:\торрент\Kriminalnye.obstoyatelstwa.2011.avi
Формат                                   : AVI
Формат/Информация                        : Audio Video Interleave
Размер файла                             : 1,37 Гбайт
Продолжительность                        : 1 ч. 22 м.
Общий поток                              : 2377 Кбит/сек
Программа кодирования                    : VirtualDubMod 1.5.4.1 (build 2178/release)
Библиотека кодирования                   : VirtualDubMod build 2178/release
Видео
Идентификатор                            : 0
Формат                                   : MPEG-4 Visual
Профиль формата                          : Advanced [email protected]
Параметр BVOP формата                    : 1
Параметр QPel формата                    : Нет
Параметр GMC формата                     : Без точки перехода
Параметр матрицы формата                 : Выборочная
Идентификатор кодека                     : XVID
Идентификатор кодека/Подсказка           : XviD
Продолжительность                        : 1 ч. 22 м.
Битрейт                                  : 2178 Кбит/сек
Ширина                                   : 720 пикселей
Высота                                   : 320 пикселей
Соотношение сторон                       : 2,25:1
Частота кадров                           : 25,000 кадров/сек
Цветовое пространство                    : YUV
Субдискретизация насыщенности            : 4:2:0
Битовая глубина                          : 8 бит
Тип развёртки                            : Прогрессивная
Метод сжатия                             : С потерями
Бит/(Пиксели*Кадры)                      : 0.378
Размер потока                            : 1,25 Гбайт (92%)
Библиотека кодирования                   : XviD 64
Аудио
Идентификатор                            : 1
Формат                                   : MPEG Audio
Версия формата                           : Version 1
Профиль формата                          : Layer 3
Режим                                    : Joint stereo
Расширение режима                        : MS Stereo
Идентификатор кодека                     : 55
Идентификатор кодека/Подсказка           : MP3
Продолжительность                        : 1 ч. 22 м.
Вид битрейта                             : Постоянный
Битрейт                                  : 192 Кбит/сек
Каналы                                   : 2 канала
Частота                                  : 48,0 КГц
Метод сжатия                             : С потерями
Размер потока                            : 113 Мбайт (8%)
Выравнивание                             : Соединение по промежуткам
Продолжительность промежутка             : 80  мс. (2,00 видеокадра)
Время предзагрузки промежутка            : 504  мс.
Библиотека кодирования                   : LAME3.97
Настройки программы                      : -m j -V 4 -q 2 -lowpass 18.6 -b 192
Скриншоты:
       
Other forum [Profile] [PM]
Similar theme
Forum Topic Author Torrent Replies Last Post
./templates/default/images/folder_dl.gif Фильмы до 2000 года Гений (2 серии из 2) [Виктор Сергеев] (Комедия, Криминал, 1991) DVDRip Omen
1 | 0

0 | 3960

19

2013-06-01 21:54
Omen Latest
./templates/default/images/folder_dl.gif Отечественные cериалы Меч 2 (Пролог + Серии 01—20 из 20) (Алексей Луканев) [2015, криминал, SATRip] O.S.A.
1 | 0

0 | 1513

37

2015-06-15 18:54
O.S.A. Latest
./templates/default/images/folder_dl.gif Новинки (HD|DVD|BD|WEB|TV|SAT|PDTV|-Rip) Четверо против банка / Vier gegen die Bank (Вольфганг Петерсен / Wolfgang Petersen) [2016, комедия, криминал, BDRip-AVC] Dub [iTunes] Anonymous
1 | 0

0 | 2291

22

2018-01-31 13:58
Anonymous Latest
./templates/default/images/folder_dl.gif Новинки (HD|DVD|BD|WEB|TV|SAT|PDTV|-Rip) Однажды в Стокгольме / Stockholm (Роберт Будро) [2018 г., драма, комедия, криминал, WEB-DLRip]DUB | iTunes kilmister777
1 | 0

0 | 658

1

2019-07-15 12:01
kilmister777 Latest
./templates/default/images/folder_dl.gif Фильмы 2011-2019 Джокер / Joker (Тодд Филлипс / Todd Phillips) [2019, США, Канада, триллер, драма, криминал, WEBRip 1080p] VO (BadBajo) + MVO (Mallorn) + Ukr + Sub (Rus, Eng) + Original Eng Soldat_5
1 | 0

0 | 435

0

Yesterday 13:04
Soldat_5 Latest
Display posts from previous:    
Reply to topic

The time now is: Today 19:02

All times are GMT + 3 Hours



You cannot post new topics in this forum
You cannot reply to topics in this forum
You cannot edit your posts in this forum
You cannot delete your posts in this forum
You cannot vote in polls in this forum
You cannot attach files in this forum
You cannot download files in this forum