Today is a free download without charge Download

Santa Esmeralda - 11 Albums (1977-2005) [WavPack, FLAC, APE|Lossless]

Reply to topic
 
Author
Message

UndegraundMen ®

Longevity: 8 years 1 month

Posts: 25145

Торрент-статистика

Post 11-Jul-2013 14:06

[Quote]

Santa Esmeralda - 11 Albums (1977 - 2005) Год: 1977-2005
Жанр: Disco, Funk, Soul, Latin, Pop, Rock, Electronic
Продолжительность: 08:46:19
Количество альбомов: 11
Кодек: APE, FLAC, WavPack
Битрейт: Lossless
Тип рипа: image + cue
Номер по каталогу: в содержании
Наличие сканов: да
Источник: KOGANKW, Boris1
Santa Esmeralda - американо-французкий коллектив, исполнявший яркое диско в 70-х. Прославились они, благодаря своему исполнению одной из лучших кавер-версий песни "Don't Let Me Be Misunderstood", джазовой дивы Нины Симон (Nina Simone). В 1977 году данный кавер получил №1 в топе самых горячих танцевальных хитов года.
История Santa Esmeralda начинается с конца 1976 года, когда французский продюсер Николас Скорски (Nicolas Skorsky) начал в парижской Studio Des Dames подготовку к записи нового диско-проекта. Скорски был известен во Франции как певец и автор песен, исполнявшихся французскими звёздами, одна из самых знаменитых - Chanson Populare, которую пел Клод Франсуа (Claude Francois). Основной идеей нового проекта было соединение диско с ритмами фламенко. В качестве вокалиста и саксофониста был приглашён американец Лерой Гомез (Leroy Gomez). Свою первую музыкальную группу он организовал в возрасте четырнадцати лет, позже играл и пел в группе Tavares, с которой объездил с концертами Соединенные Штаты, Канаду и Европу.

Далее о группе

В начале семидесятых Лерой переселился в Париж, где вскоре стал одним из лучших сессионных саксофонистов и вокалистов. Он работал со многими великими артистами (Patrick Juvet, Gilbert Becaud, Claude Franсois). В 1973 году он записал партии саксофона для альбома Элтона Джона - Yellow Brick Road.
Вышедший в 1977 году первый альбом Santa Esmeralda - Don't Let Me Be Misunderstood включал в себя 5 номеров: на первой стороне почти 16-ти минутный нон-стоп Don't Let Me Be Misunderstood + Esmeralda Suite, на второй стороне баллада You're My Everything и два танцевальных номера Gloria, и Black Pot. Пластинка разошлась 15-ти миллионным тиражом в течении нескольких месяцев. На сегодняшний день продано 25 миллионов дисков, не считая синглов и кассет. Альбом Don't Let Me Be Misunderstood получил по результатам продаж 48 золотых дисков и 42 платиновых! Сингл Don't Let Me Be Misunderstood возглавлял чарты во многих странах мира, You're My Everything и Gloria также стали международными хитами.
Изначально Santa Esmeralda создавалась как студийный проект, но успех заставил Николаса Скорски заняться формированием группы для концертных выступлений. Так как Лерой Гомез к тому времени уже записывал свой первый сольный альбом Gypsy Woman для лейбла Casablanca, новым вокалистом группы стал Джимми Гоингс (Jimmy Goings, ранее работал звукооператором, а затем был ударником у Сильвестра).
Второй альбом Santa Esmeralda записывался уже с участием Гоингса как вокалиста. Пластинка The House Of Rising Sun вышла в 1978 году (в официальной дискографии значится 1977 год), а заглавная песня - ещё один кавер хита группы Animals, выпущенная на сингле, стала золотой во многих странах. Скорски снова использовал верный рецепт соединяя проверенную временем мелодию с ритмами диско - как писали критики, получилось что-то вроде вестерна в духе Saturday Night Fever. В том же 1978 году для фильма Thank God It's Friday с участием Донны Саммер (Donna Summer) была записана композиция Sevilla Nights.
В 1978 году вышел альбом Beauty - диско-сюита по мотивам вампирских ужастиков, в 1979 - Another Cha Cha, построенный на латиноамериканских ритмах и мелодиях.
1980 год - альбом Don't Be Shy Tonight, никаких экспериментов - 100% Santa Esmeralda.
1981 год - обескураживающе непохожая на предыдущие, пластинка Hush. На диске представлен набор среднетемповых рок-композиций, среди которых кавер-версии песен Rolling Stones и Beatles, несколько романтических баллад и даже песня в стиле реггей. И никакого диско.
Последний альбом Santa Esmeralda - Green Talisman, выпущенный Polydor в 1982 году, в США не издавался. Похоже, что Николас Скорски решил напоследок продемонстрировать на что они с Гоингсом способны: сингл Green Talisman - классический диско хит в лучших традициях Santa Esmeralda, ничуть не хуже Don't Let Me Be Misunderstood и House Of The Rising Sun. Siboney - эффектный номер в стиле фламенко, в Forchune Teller прослушивается влияние рок-оперы "Superstar" Уэббера, а Eye Of The Cat вполне могли бы записать и Kiss образца начала 80-х. Не обошлось и без депрессивных баллад: Sweet Fusion и Eternal Light. Пластинка Green Talisman была издана в СССР фирмой Мелодия.
В 1994 году компания Hot Productions переиздала на CD полную коллекцию альбомов "Santa Esmeralda", а также выпустила сборник хитов группы. В это же время Николас Скорски и Лерой Гомез записывают новые версии основных песен Santa Esmeralda, с которыми Гомез, выпустивший несколько сольных альбомов и успевший принять участие в конкурсе Сан-Ремо, начинает выступать как Santa Esmeralda, чем успешно занимается по сегодняшний день.
В 2003 году Квентин Тарантино (Quentin Tarantino) использовал инструментальный фрагмент Don't Let Me Be Misunderstood для сцены дуэли на самурайских мечах Умы Турман и Люси Лью в фильме Убить Билла ("Kill Bill" Vol.1). Песня вошла в альбом с оригинальным саундреком фильма.
Содержание:

1977 - Don't Let Me Be Misunderstood (US 1994 Hot Productions • HTCD 6634)

Год: 1977 / 1994
Жанр: Disco, Pop, R&B, Rock
Продолжительность: 00:32:56
Кодек: WavPack
Битрейт: Lossless
Страна-производитель: USA
Лейбл: Hot Productions
Номер по каталогу: HTCD 6634


Трек лист:
01. Don't Let Me Be Misunderstood (7:50)
02. Esmeralda Suite (8:23)
03. Gloria (3:42)
04. You're My Everything (5:45)
05. Black Pot (7:16)
-

Отчёт ЕАС:

Код:
Exact Audio Copy V0.99 prebeta 5 from 4. May 2009
EAC extraction logfile from 1. July 2013, 3:51
SANTA ESMERALDA / Don't Let Me Be Misunderstood
Used drive  : ASUS    DRW-24B3ST   Adapter: 4  ID: 0
Read mode               : Secure
Utilize accurate stream : Yes
Defeat audio cache      : Yes
Make use of C2 pointers : No
Read offset correction                      : 6
Overread into Lead-In and Lead-Out          : No
Fill up missing offset samples with silence : Yes
Delete leading and trailing silent blocks   : No
Null samples used in CRC calculations       : Yes
Used interface                              : Native Win32 interface for Win NT & 2000
Used output format              : User Defined Encoder
Selected bitrate                : 1024 kBit/s
Quality                         : High
Add ID3 tag                     : No
Command line compressor         : C:\Program Files (x86)\EAC\WV\wavpack.exe
Additional command line options : -h -hh -m %s %d
TOC of the extracted CD
     Track |   Start  |  Length  | Start sector | End sector
    ---------------------------------------------------------
        1  |  0:00.50 |  7:50.27 |        50    |    35326
        2  |  7:51.02 |  8:23.00 |     35327    |    73051
        3  | 16:14.02 |  3:42.00 |     73052    |    89701
        4  | 19:56.02 |  5:45.00 |     89702    |   115576
        5  | 25:41.02 |  7:15.66 |    115577    |   148267
Range status and errors
Selected range
     Filename G:\SANTA ESMERALDA\1977- Don't Let Me Be Misunderstood (US 1994 Hot Productions • HTCD 6634)\SANTA ESMERALDA - Don't Let Me Be Misunderstood.wav
     Peak level 97.8 %
     Range quality 100.0 %
     Test CRC 46454D7D
     Copy CRC 46454D7D
     Copy OK
No errors occurred
AccurateRip summary
Track  1  not present in database
Track  2  not present in database
Track  3  not present in database
Track  4  not present in database
Track  5  not present in database
None of the tracks are present in the AccurateRip database
End of status report

Отчёт auCDtect Task manager:

Код:
-----------------------
DON'T MODIFY THIS FILE
-----------------------
PERFORMER: auCDtect Task Manager, ver. 1.5.1RC4 build 1.5.1.5
Copyright (c) 2008-2010 y-soft. All rights reserved
http://y-soft.org
ANALYZER: auCDtect: CD records authenticity detector, version 0.8.2
Copyright (c) 2004 Oleg Berngardt. All rights reserved.
Copyright (c) 2004 Alexander Djourik. All rights reserved.
FILE: SANTA ESMERALDA - Don't Let Me Be Misunderstood.wv
  Size: 205830708 Hash: 462C04A871A60F05F0808EADCA236FD4 Accuracy: -m0
  Conclusion: CDDA 100%
  Signature: FFA98F7365AE555A5C3A67E1DD072BBE6401F6D6

1977 - The House Of The Rising Sun (US 1994 Hot Productions • HTCD 6635)

Год: 1977 / 1994
Жанр: Disco, Pop, R&B, Rock
Продолжительность: 00:31:50
Кодек: WavPack
Битрейт: Lossless
Страна-производитель: USA
Лейбл: Hot Productions
Номер по каталогу: HTCD 6635


Трек лист:
01. The House Of The Rising Sun \ Quasimodo Suite (14:54)
02. Dance You Down Tonight (7:03)
03. Nothing Else Matters (6:36)
04. Hey! Gip (3:17)
-

Отчёт ЕАС:

Код:
Exact Audio Copy V0.99 prebeta 5 from 4. May 2009
EAC extraction logfile from 1. July 2013, 9:34
SANTA ESMERALDA / The House Of The Rising Sun
Used drive  : ASUS    DRW-24B3ST   Adapter: 4  ID: 0
Read mode               : Secure
Utilize accurate stream : Yes
Defeat audio cache      : Yes
Make use of C2 pointers : No
Read offset correction                      : 6
Overread into Lead-In and Lead-Out          : No
Fill up missing offset samples with silence : Yes
Delete leading and trailing silent blocks   : No
Null samples used in CRC calculations       : Yes
Used interface                              : Native Win32 interface for Win NT & 2000
Used output format              : User Defined Encoder
Selected bitrate                : 1024 kBit/s
Quality                         : High
Add ID3 tag                     : No
Command line compressor         : C:\Program Files (x86)\EAC\WV\wavpack.exe
Additional command line options : -h -hh -m %s %d
TOC of the extracted CD
     Track |   Start  |  Length  | Start sector | End sector
    ---------------------------------------------------------
        1  |  0:00.50 | 14:53.65 |        50    |    67089
        2  | 14:54.40 |  7:03.07 |     67090    |    98821
        3  | 21:57.47 |  6:35.73 |     98822    |   128519
        4  | 28:33.45 |  3:17.17 |    128520    |   143311
Range status and errors
Selected range
     Filename G:\SANTA ESMERALDA\02. 1977- The House Of The Rising Sun (US 1994 Hot Productions • HTCD 6635)\SANTA ESMERALDA - The House Of The Rising Sun.wav
     Peak level 100.0 %
     Range quality 100.0 %
     Test CRC A39E4DF5
     Copy CRC A39E4DF5
     Copy OK
No errors occurred
AccurateRip summary
Track  1  cannot be verified as accurate (confidence 2)  [9ECFFBF9], AccurateRip returned [F3460535]
Track  2  cannot be verified as accurate (confidence 2)  [FD8C6AE7], AccurateRip returned [F8532779]
Track  3  cannot be verified as accurate (confidence 2)  [6234725B], AccurateRip returned [2CF3A671]
Track  4  accurately ripped (confidence 2)  [AD5574AE]
1 track(s) accurately ripped
3 track(s) could not be verified as accurate
Some tracks could not be verified as accurate
End of status report

Отчёт auCDtect Task manager:

Код:
-----------------------
DON'T MODIFY THIS FILE
-----------------------
PERFORMER: auCDtect Task Manager, ver. 1.5.1RC4 build 1.5.1.5
Copyright (c) 2008-2010 y-soft. All rights reserved
http://y-soft.org
ANALYZER: auCDtect: CD records authenticity detector, version 0.8.2
Copyright (c) 2004 Oleg Berngardt. All rights reserved.
Copyright (c) 2004 Alexander Djourik. All rights reserved.
FILE: SANTA ESMERALDA - The House Of The Rising Sun.wv
  Size: 207192154 Hash: 04B69A6E75E589E820A7D838788B4606 Accuracy: -m0
  Conclusion: CDDA 100%
  Signature: 07837631E4CD16DA0DDA7EE994FF5C9CE4C7DABD

1978 - Beauty (US 1994 Hot Productions • HTCD 6636)

Год: 1978 / 1994
Жанр: Funk, Soul, Latin, Pop
Продолжительность: 00:34:55
Кодек: WavPack
Битрейт: Lossless
Страна-производитель: USA
Лейбл: Hot Productions
Номер по каталогу: HTCD 6636


Трек лист:
01. The Wages Of Sin \ Dance De La Beaute (17:10)
02. Only Beauty Survives (5:45)
03. Learning The Game (6:35)
04. Hey Joe (5:24)
-

Отчёт ЕАС:

Код:
Exact Audio Copy V0.99 prebeta 5 from 4. May 2009
EAC extraction logfile from 1. July 2013, 8:40
SANTA ESMERALDA / Beauty
Used drive  : ASUS    DRW-24B3ST   Adapter: 5  ID: 0
Read mode               : Secure
Utilize accurate stream : Yes
Defeat audio cache      : Yes
Make use of C2 pointers : No
Read offset correction                      : 6
Overread into Lead-In and Lead-Out          : No
Fill up missing offset samples with silence : Yes
Delete leading and trailing silent blocks   : No
Null samples used in CRC calculations       : Yes
Used interface                              : Native Win32 interface for Win NT & 2000
Used output format              : User Defined Encoder
Selected bitrate                : 1024 kBit/s
Quality                         : High
Add ID3 tag                     : No
Command line compressor         : C:\Program Files (x86)\EAC\WV\wavpack.exe
Additional command line options : -h -hh -m %s %d
TOC of the extracted CD
     Track |   Start  |  Length  | Start sector | End sector
    ---------------------------------------------------------
        1  |  0:00.00 | 17:10.13 |         0    |    77262
        2  | 17:10.13 |  5:44.52 |     77263    |   103114
        3  | 22:54.65 |  6:35.33 |    103115    |   132772
        4  | 29:30.23 |  5:24.24 |    132773    |   157096
Range status and errors
Selected range
     Filename G:\SANTA ESMERALDA\03. 1978- Beauty (US 1994 Hot Productions • HTCD 6636)\SANTA ESMERALDA - Beauty.wav
     Peak level 100.0 %
     Range quality 100.0 %
     Test CRC FF27BE7C
     Copy CRC FF27BE7C
     Copy OK
No errors occurred
AccurateRip summary
Track  1  accurately ripped (confidence 3)  [746E6159]
Track  2  accurately ripped (confidence 3)  [9019EBC7]
Track  3  accurately ripped (confidence 3)  [7EC58425]
Track  4  accurately ripped (confidence 3)  [4A36B917]
All tracks accurately ripped
End of status report

Отчёт auCDtect Task manager:

Код:
-----------------------
DON'T MODIFY THIS FILE
-----------------------
PERFORMER: auCDtect Task Manager, ver. 1.5.1RC4 build 1.5.1.5
Copyright (c) 2008-2010 y-soft. All rights reserved
http://y-soft.org
ANALYZER: auCDtect: CD records authenticity detector, version 0.8.2
Copyright (c) 2004 Oleg Berngardt. All rights reserved.
Copyright (c) 2004 Alexander Djourik. All rights reserved.
FILE: SANTA ESMERALDA - Beauty.wv
  Size: 235864734 Hash: ED03E66B2E3554F133A27E142980385B Accuracy: -m0
  Conclusion: CDDA 100%
  Signature: 52D41202FE9C5F02B74682239B42376FD164AAEE

1979 - Another Cha-Cha (US 1994 Hot Productions • HTCD 6637)

Год: 1979 / 1994
Жанр: Funk, Soul, Latin
Продолжительность: 00:33:23
Кодек: WavPack
Битрейт: Lossless
Страна-производитель: USA
Лейбл: Hot Productions
Номер по каталогу: HTCD 6637


Трек лист:
01. Medley - Another Cha Cha \ Cha Cha Suite (14:02)
02. Generation (6:31)
03. Back To The Beginning (5:43)
04. Answer (7:07)
-

Отчёт ЕАС:

Код:
Exact Audio Copy V0.99 prebeta 5 from 4. May 2009
EAC extraction logfile from 1. July 2013, 9:11
SANTA ESMERALDA / Another Cha-Cha
Used drive  : ASUS    DRW-24B3ST   Adapter: 4  ID: 0
Read mode               : Secure
Utilize accurate stream : Yes
Defeat audio cache      : Yes
Make use of C2 pointers : No
Read offset correction                      : 6
Overread into Lead-In and Lead-Out          : No
Fill up missing offset samples with silence : Yes
Delete leading and trailing silent blocks   : No
Null samples used in CRC calculations       : Yes
Used interface                              : Native Win32 interface for Win NT & 2000
Used output format              : User Defined Encoder
Selected bitrate                : 1024 kBit/s
Quality                         : High
Add ID3 tag                     : No
Command line compressor         : C:\Program Files (x86)\EAC\WV\wavpack.exe
Additional command line options : -h -hh -m %s %d
TOC of the extracted CD
     Track |   Start  |  Length  | Start sector | End sector
    ---------------------------------------------------------
        1  |  0:00.50 | 14:02.00 |        50    |    63199
        2  | 14:02.50 |  6:30.50 |     63200    |    92499
        3  | 20:33.25 |  5:43.22 |     92500    |   118246
        4  | 26:16.47 |  7:07.18 |    118247    |   150289
Range status and errors
Selected range
     Filename G:\SANTA ESMERALDA\04. 1979- Another Cha-Cha (US 1994 Hot Productions • HTCD 6637)\SANTA ESMERALDA - Another Cha-Cha.wav
     Peak level 100.0 %
     Range quality 100.0 %
     Test CRC AEF4C562
     Copy CRC AEF4C562
     Copy OK
No errors occurred
AccurateRip summary
Track  1  accurately ripped (confidence 1)  [9EA8C50E]
Track  2  accurately ripped (confidence 1)  [C645A56D]
Track  3  accurately ripped (confidence 1)  [63B4F758]
Track  4  accurately ripped (confidence 1)  [C2E79AAC]
All tracks accurately ripped
End of status report

Отчёт auCDtect Task manager:

Код:
-----------------------
DON'T MODIFY THIS FILE
-----------------------
PERFORMER: auCDtect Task Manager, ver. 1.5.1RC4 build 1.5.1.5
Copyright (c) 2008-2010 y-soft. All rights reserved
http://y-soft.org
ANALYZER: auCDtect: CD records authenticity detector, version 0.8.2
Copyright (c) 2004 Oleg Berngardt. All rights reserved.
Copyright (c) 2004 Alexander Djourik. All rights reserved.
FILE: SANTA ESMERALDA - Another Cha-Cha.wv
  Size: 208715752 Hash: 72F1A101B5CB8595E0E2567F2E304620 Accuracy: -m0
  Conclusion: CDDA 100%
  Signature: E08BA6724AB0A3323D884F25C6AB2F4044C36492

1980 - Don't Be Shy Tonight (US 1994 Hot Productions • HTCD 6638)

Год: 1980 / 1994
Жанр: Disco, Funk, Soul, Latin, Pop
Продолжительность: 00:32:03
Кодек: WavPack
Битрейт: Lossless
Страна-производитель: USA
Лейбл: Hot Productions
Номер по каталогу: HTCD 6638


Трек лист:
01. C'est Magnifique \ Sweet Suite (7:03)
02. Stop (To A Friend) (4:22)
03. Part Of The Deal (4:46)
04. Don't Be Shy Tonight (6:11)
05. Fool From The Start (6:18)
06. Esmeralda Song (3:23)
-

Отчёт ЕАС:

Код:
Exact Audio Copy V0.99 prebeta 5 from 4. May 2009
EAC extraction logfile from 1. July 2013, 9:10
SANTA ESMERALDA / Don't Be Shy Tonight
Used drive  : ASUS    DRW-24B3ST   Adapter: 5  ID: 0
Read mode               : Secure
Utilize accurate stream : Yes
Defeat audio cache      : Yes
Make use of C2 pointers : No
Read offset correction                      : 6
Overread into Lead-In and Lead-Out          : No
Fill up missing offset samples with silence : Yes
Delete leading and trailing silent blocks   : No
Null samples used in CRC calculations       : Yes
Used interface                              : Native Win32 interface for Win NT & 2000
Used output format              : User Defined Encoder
Selected bitrate                : 1024 kBit/s
Quality                         : High
Add ID3 tag                     : No
Command line compressor         : C:\Program Files (x86)\EAC\WV\wavpack.exe
Additional command line options : -h -hh -m %s %d
TOC of the extracted CD
     Track |   Start  |  Length  | Start sector | End sector
    ---------------------------------------------------------
        1  |  0:00.50 |  7:02.57 |        50    |    31756
        2  |  7:03.32 |  4:22.15 |     31757    |    51421
        3  | 11:25.47 |  4:45.50 |     51422    |    72846
        4  | 16:11.22 |  6:10.43 |     72847    |   100639
        5  | 22:21.65 |  6:18.37 |    100640    |   129026
        6  | 28:40.27 |  3:23.00 |    129027    |   144251
Range status and errors
Selected range
     Filename G:\SANTA ESMERALDA\05. 1980- Don't Be Shy Tonight (US 1994 Hot Productions • HTCD 6638)\SANTA ESMERALDA - Don't Be Shy Tonight.wav
     Peak level 100.0 %
     Range quality 100.0 %
     Test CRC 699EF339
     Copy CRC 699EF339
     Copy OK
No errors occurred
AccurateRip summary
Track  1  accurately ripped (confidence 2)  [0846D643]
Track  2  accurately ripped (confidence 2)  [BD12CDD0]
Track  3  accurately ripped (confidence 2)  [C6E0CB8F]
Track  4  accurately ripped (confidence 2)  [E79A64E7]
Track  5  accurately ripped (confidence 2)  [D7A44225]
Track  6  not present in database
5 track(s) accurately ripped
1 track(s) not present in the AccurateRip database
Some tracks could not be verified as accurate
End of status report

Отчёт auCDtect Task manager:

Код:
-----------------------
DON'T MODIFY THIS FILE
-----------------------
PERFORMER: auCDtect Task Manager, ver. 1.5.1RC4 build 1.5.1.5
Copyright (c) 2008-2010 y-soft. All rights reserved
http://y-soft.org
ANALYZER: auCDtect: CD records authenticity detector, version 0.8.2
Copyright (c) 2004 Oleg Berngardt. All rights reserved.
Copyright (c) 2004 Alexander Djourik. All rights reserved.
FILE: SANTA ESMERALDA - Don't Be Shy Tonight.wv
  Size: 212629248 Hash: 4427A131912E84A4F0BB028E8CC26710 Accuracy: -m0
  Conclusion: CDDA 100%
  Signature: 3ED7ADC95DF4264EEB6910CB45C6B59BD9F1D147

1981 - Hush (US 1994 Hot Productions • HTCD 6640)

Год: 1981 / 1994
Жанр: Disco, Latin
Продолжительность: 00:35:16
Кодек: WavPack
Битрейт: Lossless
Страна-производитель: USA
Лейбл: Hot Productions
Номер по каталогу: HTCD 6640


Трек лист:
01. Hush (2:52)
02. Things We Cannot Change (3:59)
03. Don't Make Me Feel That Way (3:58)
04. No Replay (3:24)
05. Knives (3:21)
06. Street Fighting Man \ Street Suite (7:20)
07. Walking Backwards (2:44)
08. Welcome To The World (4:06)
09. What I Wanna Do With Your Love (3:31)
-

Отчёт ЕАС:

Код:
Exact Audio Copy V0.99 prebeta 5 from 4. May 2009
EAC extraction logfile from 1. July 2013, 9:35
SANTA ESMERALDA / Hush
Used drive  : ASUS    DRW-24B3ST   Adapter: 5  ID: 0
Read mode               : Secure
Utilize accurate stream : Yes
Defeat audio cache      : Yes
Make use of C2 pointers : No
Read offset correction                      : 6
Overread into Lead-In and Lead-Out          : No
Fill up missing offset samples with silence : Yes
Delete leading and trailing silent blocks   : No
Null samples used in CRC calculations       : Yes
Used interface                              : Native Win32 interface for Win NT & 2000
Used output format              : User Defined Encoder
Selected bitrate                : 1024 kBit/s
Quality                         : High
Add ID3 tag                     : No
Command line compressor         : C:\Program Files (x86)\EAC\WV\wavpack.exe
Additional command line options : -h -hh -m %s %d
TOC of the extracted CD
     Track |   Start  |  Length  | Start sector | End sector
    ---------------------------------------------------------
        1  |  0:00.32 |  2:52.03 |        32    |    12934
        2  |  2:52.35 |  3:59.27 |     12935    |    30886
        3  |  6:51.62 |  3:57.65 |     30887    |    48726
        4  | 10:49.52 |  3:23.43 |     48727    |    63994
        5  | 14:13.20 |  3:20.62 |     63995    |    79056
        6  | 17:34.07 |  7:20.20 |     79057    |   112076
        7  | 24:54.27 |  2:44.13 |    112077    |   124389
        8  | 27:38.40 |  4:05.70 |    124390    |   142834
        9  | 31:44.35 |  3:31.35 |    142835    |   158694
Range status and errors
Selected range
     Filename G:\SANTA ESMERALDA\06. 1981- Hush (US 1994 Hot Productions • HTCD 6640)\SANTA ESMERALDA - Hush.wav
     Peak level 100.0 %
     Range quality 99.9 %
     Test CRC 9196131B
     Copy CRC 9196131B
     Copy OK
No errors occurred
AccurateRip summary
Track  1  accurately ripped (confidence 1)  [ACC1FEB0]
Track  2  accurately ripped (confidence 1)  [7739125D]
Track  3  accurately ripped (confidence 1)  [0C4D7AB2]
Track  4  accurately ripped (confidence 1)  [5CCFB1BA]
Track  5  accurately ripped (confidence 1)  [44075802]
Track  6  accurately ripped (confidence 1)  [45DAF1D6]
Track  7  accurately ripped (confidence 1)  [B2F395A1]
Track  8  accurately ripped (confidence 1)  [F0965F68]
Track  9  accurately ripped (confidence 1)  [B26E9F70]
All tracks accurately ripped
End of status report

Отчёт auCDtect Task manager:

Код:
-----------------------
DON'T MODIFY THIS FILE
-----------------------
PERFORMER: auCDtect Task Manager, ver. 1.5.1RC4 build 1.5.1.5
Copyright (c) 2008-2010 y-soft. All rights reserved
http://y-soft.org
ANALYZER: auCDtect: CD records authenticity detector, version 0.8.2
Copyright (c) 2004 Oleg Berngardt. All rights reserved.
Copyright (c) 2004 Alexander Djourik. All rights reserved.
FILE: SANTA ESMERALDA - Hush.wv
  Size: 197396024 Hash: 4533EEB5FC7FE978A1674CAC7EC77486 Accuracy: -m0
  Conclusion: CDDA 100%
  Signature: 9B907F5389BFDCC0DF23138FAB523EADD81CBB9E

1982 - Green Talisman (US 1994 Hot Productions • HTCD 6639)

Год: 1982 / 1994
Жанр: Disco, Latin
Продолжительность: 00:33:39
Кодек: WavPack
Битрейт: Lossless
Страна-производитель: USA
Лейбл: Hot Productions
Номер по каталогу: HTCD 6640


Трек лист:
01. The Green Talisman (9:49)
02. Sweet Fusion (3:46)
03. Children Of Sanchez (3:35)
04. Siboney (4:31)
05. Fortune Teller (3:47)
06. Eye Of The Cat (4:14)
07. Eternal Light (3:57)
-

Отчёт ЕАС:

Код:
Exact Audio Copy V0.99 prebeta 5 from 4. May 2009
EAC extraction logfile from 1. July 2013, 9:55
SANTA ESMERALDA / Green Talisman
Used drive  : ASUS    DRW-24B3ST   Adapter: 5  ID: 0
Read mode               : Secure
Utilize accurate stream : Yes
Defeat audio cache      : Yes
Make use of C2 pointers : No
Read offset correction                      : 6
Overread into Lead-In and Lead-Out          : No
Fill up missing offset samples with silence : Yes
Delete leading and trailing silent blocks   : No
Null samples used in CRC calculations       : Yes
Used interface                              : Native Win32 interface for Win NT & 2000
Used output format              : User Defined Encoder
Selected bitrate                : 1024 kBit/s
Quality                         : High
Add ID3 tag                     : No
Command line compressor         : C:\Program Files (x86)\EAC\WV\wavpack.exe
Additional command line options : -h -hh -m %s %d
TOC of the extracted CD
     Track |   Start  |  Length  | Start sector | End sector
    ---------------------------------------------------------
        1  |  0:00.32 |  9:48.73 |        32    |    44204
        2  |  9:49.30 |  3:46.32 |     44205    |    61186
        3  | 13:35.62 |  3:35.03 |     61187    |    77314
        4  | 17:10.65 |  4:30.67 |     77315    |    97631
        5  | 21:41.57 |  3:47.30 |     97632    |   114686
        6  | 25:29.12 |  4:13.73 |    114687    |   133734
        7  | 29:43.10 |  3:56.55 |    133735    |   151489
Range status and errors
Selected range
     Filename G:\SANTA ESMERALDA\07. 1982- Green Talisman (US 1994 Hot Productions • HTCD 6639)\SANTA ESMERALDA - Green Talisman.wav
     Peak level 98.8 %
     Range quality 100.0 %
     Test CRC 39245DE2
     Copy CRC 39245DE2
     Copy OK
No errors occurred
AccurateRip summary
Track  1  accurately ripped (confidence 1)  [ECEACB45]
Track  2  accurately ripped (confidence 1)  [ADD514AE]
Track  3  accurately ripped (confidence 1)  [83129978]
Track  4  accurately ripped (confidence 1)  [556AD723]
Track  5  accurately ripped (confidence 1)  [1514DDF0]
Track  6  accurately ripped (confidence 1)  [3BBF1DC5]
Track  7  accurately ripped (confidence 1)  [21FBAFCF]
All tracks accurately ripped
End of status report

Отчёт auCDtect Task manager:

Код:
-----------------------
DON'T MODIFY THIS FILE
-----------------------
PERFORMER: auCDtect Task Manager, ver. 1.5.1RC4 build 1.5.1.5
Copyright (c) 2008-2010 y-soft. All rights reserved
http://y-soft.org
ANALYZER: auCDtect: CD records authenticity detector, version 0.8.2
Copyright (c) 2004 Oleg Berngardt. All rights reserved.
Copyright (c) 2004 Alexander Djourik. All rights reserved.
FILE: SANTA ESMERALDA - Green Talisman.wv
  Size: 212633920 Hash: FBC4FF6C598C9A50F259959AB37204E6 Accuracy: -m0
  Conclusion: CDDA 100%
  Signature: 6A488550DA61474D78DFF70A21BA3D40C947AAC9

1987 - Best Of (DE Philips • 460502600929)

Год: 1987
Жанр: Disco, Latin
Продолжительность: 00:50:35
Кодек: FLAC
Битрейт: Lossless
Страна-производитель: Germany
Лейбл: Philips
Номер по каталогу: 460502600929


Трек лист:
01. Donґt Let Me Be Misunderstood + Esmeralda Suite (16:13)
02. Gloria (3:41)
03. Youґre My Everything (5:43)
04. Hey!Gyp (3:21)
05. Generation (6:41)
06. The House Of The Rising Sun + Quasimodo Suite (14:57)
-

Отчёт ЕАС:

Код:
Exact Audio Copy V0.99 prebeta 4 from 23. January 2008
EAC extraction logfile from 19. March 2009, 16:25
Santa Esmeralda / Best of
Used drive  : _NEC    DVD_RW ND-3520A   Adapter: 2  ID: 0
Read mode               : Secure
Utilize accurate stream : Yes
Defeat audio cache      : Yes
Make use of C2 pointers : No
Read offset correction                      : 48
Overread into Lead-In and Lead-Out          : No
Fill up missing offset samples with silence : Yes
Delete leading and trailing silent blocks   : No
Null samples used in CRC calculations       : Yes
Used interface                              : Installed external ASPI interface
Used output format              : User Defined Encoder
Selected bitrate                : 896 kBit/s
Quality                         : High
Add ID3 tag                     : No
Command line compressor         : C:\Program Files\Exact Audio Copy\Flac\flac.exe
Additional command line options : -8 -V -T "ARTIST=%a" -T "TITLE=%t" -T "ALBUM=%g" -T "DATE=%y" -T "TRACKNUMBER=%n" -T "GENRE=%m" -T "COMMENT=%e" %s -o %d
TOC of the extracted CD
     Track |   Start  |  Length  | Start sector | End sector
    ---------------------------------------------------------
        1  |  0:00.32 | 16:12.38 |        32    |    72969
        2  | 16:12.70 |  3:41.12 |     72970    |    89556
        3  | 19:54.07 |  5:42.38 |     89557    |   115244
        4  | 25:36.45 |  3:21.25 |    115245    |   130344
        5  | 28:57.70 |  6:41.00 |    130345    |   160419
        6  | 35:38.70 | 14:56.62 |    160420    |   227681
Range status and errors
Selected range
     Filename J:\muz\New Folder\Santa Esmeralda - Best of.wav
     Peak level 100.0 %
     Range quality 100.0 %
     Copy CRC FCDE13FF
     Copy OK
No errors occurred
End of status report

Отчёт auCDtect Task manager:

Код:
-----------------------
DON'T MODIFY THIS FILE
-----------------------
PERFORMER: auCDtect Task Manager, ver. 1.5.1RC4 build 1.5.1.5
Copyright (c) 2008-2010 y-soft. All rights reserved
http://y-soft.org
ANALYZER: auCDtect: CD records authenticity detector, version 0.8.2
Copyright (c) 2004 Oleg Berngardt. All rights reserved.
Copyright (c) 2004 Alexander Djourik. All rights reserved.
FILE: Santa Esmeralda - Best of.flac
  Size: 340935163 Hash: 17947578574DFECD65E9747A30232F93 Accuracy: -m0
  Conclusion: MPEG 95%
  Signature: 6EABD97581C1FC557B27224E0BE8887F045D5936

Спектрограмма:

 

1995 - Don't Let Me Be Misunderstood (JP 1997 Victor • VICP-2120)

Год: 1995
Жанр: Disco, Pop
Продолжительность: 00:50:04
Кодек: WavPack
Битрейт: Lossless
Страна-производитель: Japan
Лейбл: Victor Entertainment
Номер по каталогу: VICP-2120


Трек лист:
01. Don't Let Me Be Misunderstood \ Esmeralda Suite (14:22)
02. Gloria (3:56)
03. You're My Everything (5:01)
04. Black Pot (7:04)
05. The House Of The Rising Sun \ Quasimodo Suite (3:42)
06. Sevilla Nights (3:07)
07. Another Cha Cha-Cha Cha Suite (6:11)
08. Don't Let Me Be Misunderstood \ Esmeralda Suite (6:41)
-

Отчёт ЕАС:

Код:
Exact Audio Copy V0.99 prebeta 5 from 4. May 2009
EAC extraction logfile from 1. July 2013, 10:04
SANTA ESMERALDA / Don't Let Me Be Misunderstood ( VICP-2120 )
Used drive  : ASUS    DRW-24B3ST   Adapter: 4  ID: 0
Read mode               : Secure
Utilize accurate stream : Yes
Defeat audio cache      : Yes
Make use of C2 pointers : No
Read offset correction                      : 6
Overread into Lead-In and Lead-Out          : No
Fill up missing offset samples with silence : Yes
Delete leading and trailing silent blocks   : No
Null samples used in CRC calculations       : Yes
Used interface                              : Native Win32 interface for Win NT & 2000
Used output format              : User Defined Encoder
Selected bitrate                : 1024 kBit/s
Quality                         : High
Add ID3 tag                     : No
Command line compressor         : C:\Program Files (x86)\EAC\WV\wavpack.exe
Additional command line options : -h -hh -m %s %d
TOC of the extracted CD
     Track |   Start  |  Length  | Start sector | End sector
    ---------------------------------------------------------
        1  |  0:00.37 | 14:21.40 |        37    |    64651
        2  | 14:22.02 |  3:55.38 |     64652    |    82314
        3  | 18:17.40 |  5:01.10 |     82315    |   104899
        4  | 23:18.50 |  7:04.00 |    104900    |   136699
        5  | 30:22.50 |  3:42.22 |    136700    |   153371
        6  | 34:04.72 |  3:07.15 |    153372    |   167411
        7  | 37:12.12 |  6:11.20 |    167412    |   195256
        8  | 43:23.32 |  6:41.08 |    195257    |   225339
Range status and errors
Selected range
     Filename G:\SANTA ESMERALDA\08. 1995- Don't Let Me Be Misunderstood [+4] (JP 1997 Victor • VICP-2120)\SANTA ESMERALDA - Don't Let Me Be Misunderstood ( VICP-2120 ).wav
     Peak level 100.0 %
     Range quality 99.9 %
     Test CRC 3FC86D7C
     Copy CRC 3FC86D7C
     Copy OK
No errors occurred
AccurateRip summary
Track  1  accurately ripped (confidence 1)  [E4616FDE]
Track  2  accurately ripped (confidence 1)  [C395F336]
Track  3  accurately ripped (confidence 1)  [2F82AC32]
Track  4  accurately ripped (confidence 1)  [115B25A6]
Track  5  accurately ripped (confidence 1)  [C6487DEC]
Track  6  accurately ripped (confidence 1)  [F4F9DD39]
Track  7  accurately ripped (confidence 1)  [2D7D384D]
Track  8  accurately ripped (confidence 1)  [0D8A4DCE]
All tracks accurately ripped
End of status report

Отчёт auCDtect Task manager:

Код:
-----------------------
DON'T MODIFY THIS FILE
-----------------------
PERFORMER: auCDtect Task Manager, ver. 1.5.1RC4 build 1.5.1.5
Copyright (c) 2008-2010 y-soft. All rights reserved
http://y-soft.org
ANALYZER: auCDtect: CD records authenticity detector, version 0.8.2
Copyright (c) 2004 Oleg Berngardt. All rights reserved.
Copyright (c) 2004 Alexander Djourik. All rights reserved.
FILE: SANTA ESMERALDA - Don't Let Me Be Misunderstood ( VICP-2120 ).wv
  Size: 349604068 Hash: 119D001773BF9C69A5705B677B0D64C7 Accuracy: -m8
  Conclusion: CDDA 100%
  Signature: 84B4A628B316DD1D4FFE491F95804A98CC2FB4BE

2004 - The Greatest Hits (Empire Musicwerks • 545 450 606-2) Expanded Edition

Год: 2004
Жанр: Rock, Latin, Funk, Soul, Pop
Продолжительность: 01:15:24
Кодек: APE
Битрейт: Lossless
Страна-производитель: Europe
Лейбл: Empire Musicwerks
Номер по каталогу: 545 450 606-2


Трек лист:
01. Don't Let Me Be Misunderstood (8:23)
02. You're My Everything (4:54)
03. Another Cha Cha (4:50)
04. Still Crazy For You (5:16)
05. House Of The Rising Sun (3:40)
06. Gimme Some Lovin' (3:56)
07. Hey Mambo (5:01)
08. New Lover (4:50)
09. Copacabana (4:30)
10. Deja Voo Doo (4:43)
11. Esmeralda Hit Mix Suite (5:00)
12. Whiter Shade Of Pale (3:52)
13. Get Ready (3:50)
14. Gloria (3:52)
15. Let Me Dream Tonight (3:48)
16. Europa (4:59)
-

Отчёт ЕАС:

Код:
Exact Audio Copy V0.99 prebeta 5 from 4. May 2009
Отчёт EAC об извлечении, выполненном 9. ноября 2009, 16:07
Santa Esmeralda / The Greatest Hits
Дисковод: PIONEER DVD-RW  DVR-109   Adapter: 0  ID: 1
Режим чтения                 : Достоверность
Использование точного потока : Да
Отключение кэша аудио        : Да
Использование указателей C2  : Нет
Коррекция смещения при чтении                     : 48
Способность читать области Lead-in и Lead-out     : Нет
Заполнение пропущенных сэмплов тишиной            : Да
Удаление блоков с тишиной в начале и конце        : Нет
При вычислениях CRC использовались нулевые сэмплы : Да
Интерфейс                                         : Установленный внешний ASPI-интерфейс
Выходной формат : Внутренние WAV-операции
Формат сэмплов  : 44.100 Гц; 16 бит; стерео
TOC извлечённого CD
     Трек |   Старт  | Длительность | Начальный сектор | Конечный сектор
    ---------------------------------------------------------------------
       1  |  0:00.00 |    8:23.01   |           0      |      37725
       2  |  8:23.01 |    4:54.00   |       37726      |      59775
       3  | 13:17.01 |    4:50.01   |       59776      |      81526
       4  | 18:07.02 |    5:16.00   |       81527      |     105226
       5  | 23:23.02 |    3:40.00   |      105227      |     121726
       6  | 27:03.02 |    3:56.01   |      121727      |     139427
       7  | 30:59.03 |    5:01.01   |      139428      |     162003
       8  | 36:00.04 |    4:50.00   |      162004      |     183753
       9  | 40:50.04 |    4:30.01   |      183754      |     204004
      10  | 45:20.05 |    4:43.00   |      204005      |     225229
      11  | 50:03.05 |    4:59.63   |      225230      |     247717
      12  | 55:02.68 |    3:52.00   |      247718      |     265117
      13  | 58:54.68 |    3:50.01   |      265118      |     282368
      14  | 62:44.69 |    3:52.00   |      282369      |     299768
      15  | 66:36.69 |    3:48.01   |      299769      |     316869
      16  | 70:24.70 |    4:59.01   |      316870      |     339295
Характеристики диапазона извлечения и сообщения об ошибках
Выбранный диапазон
     Имя файла C:\!!\Santa Esmeralda - The Greatest Hits.wav
     Пиковый уровень 100.0 %
     Качество диапазона 100.0 %
     CRC теста 93F590D6
     CRC копии 93F590D6
     Копирование... OK
Ошибок не произошло
Конец отчёта

Отчёт auCDtect Task manager:

Код:
-----------------------
DON'T MODIFY THIS FILE
-----------------------
PERFORMER: auCDtect Task Manager, ver. 1.5.1RC4 build 1.5.1.5
Copyright (c) 2008-2010 y-soft. All rights reserved
http://y-soft.org
ANALYZER: auCDtect: CD records authenticity detector, version 0.8.2
Copyright (c) 2004 Oleg Berngardt. All rights reserved.
Copyright (c) 2004 Alexander Djourik. All rights reserved.
FILE: Santa Esmeralda - The Greatest Hits.ape
  Size: 607592308 Hash: 56EE0FBE15F1BDF34ECC6F9BFA9F22ED Accuracy: -m0
  Conclusion: CDDA 100%
  Signature: A21D8CCB3299F3EE9736D0A134DF882F77A85AFC

2005 - Don't Let Me Be Misunderstood (Pazzazz • 2PAZZ059) 2CD Remastered Set

Год: 2005
Жанр: Electronic, Funk, Soul, Latin, Pop
Продолжительность: 01:56:29
Кодек: image + cue
Кодек: FLAC
Битрейт: Lossless
Страна-производитель: USA
Лейбл: Pazzazz
Номер по каталогу: 2PAZZ059

Gloria


Треклист:
01. Don't Let Me Be Misunderstood (7:04)
02. Get Up Boogie (4:53)
03. House Of The Rising Sun (5:03)
04. Gloria (3:31)
05. You're My Everything (5:06)
06. Jin-Go-La-La (4:12)
07. Black Magic Woman (3:40)
08. Music Makes My Life (3:39)
09. Little Girl (6:42)
10. Give The Simple Truth (4:41)
11. Hight On The Moon (5:08)
12. Don't Let Me Be Misunderstood(Club Mix) (4:43)
-Продолжительность: 00:58:23-

Отчёт ЕАС:

Код:
Exact Audio Copy V1.0 beta 3 from 29. August 2011
EAC extraction logfile from 27. June 2013, 0:07
Santa Esmeralda / Gloria
Used drive  : SAMSUNG DVD-ROM SD-616E   Adapter: 3  ID: 0
Read mode               : Secure
Utilize accurate stream : Yes
Defeat audio cache      : Yes
Make use of C2 pointers : No
Read offset correction                      : 12
Overread into Lead-In and Lead-Out          : No
Fill up missing offset samples with silence : Yes
Delete leading and trailing silent blocks   : No
Null samples used in CRC calculations       : Yes
Used interface                              : Native Win32 interface for Win NT & 2000
Used output format              : User Defined Encoder
Selected bitrate                : 768 kBit/s
Quality                         : High
Add ID3 tag                     : No
Command line compressor         : C:\Program Files\Exact Audio Copy\FLAC\FLAC.EXE
Additional command line options : -6 -V -T "ARTIST=%artist%" -T "TITLE=%title%" -T "ALBUM=%albumtitle%" -T "DATE=%year%" -T "TRACKNUMBER=%tracknr%" -T "GENRE=%genre%" -T "COMMENT=%comment%" -T "BAND=%albuminterpret%" -T "ALBUMARTIST=%albuminterpret%" -T "COMPOSER=%composer%" %haslyrics%--tag-from-file=LYRICS="%lyricsfile%"%haslyrics% -T "DISCNUMBER=%cdnumber%" -T "TOTALDISCS=%totalcds%" -T "TOTALTRACKS=%numtracks%" %hascover%--picture="%coverfile%"%hascover% %source% -o %dest%
TOC of the extracted CD
     Track |   Start  |  Length  | Start sector | End sector
    ---------------------------------------------------------
        1  |  0:00.00 |  7:04.24 |         0    |    31823
        2  |  7:04.24 |  4:53.37 |     31824    |    53835
        3  | 11:57.61 |  5:02.43 |     53836    |    76528
        4  | 17:00.29 |  3:31.27 |     76529    |    92380
        5  | 20:31.56 |  5:05.74 |     92381    |   115329
        6  | 25:37.55 |  4:12.14 |    115330    |   134243
        7  | 29:49.69 |  3:39.52 |    134244    |   150720
        8  | 33:29.46 |  3:38.66 |    150721    |   167136
        9  | 37:08.37 |  6:42.12 |    167137    |   197298
       10  | 43:50.49 |  4:41.29 |    197299    |   218402
       11  | 48:32.03 |  5:07.72 |    218403    |   241499
       12  | 53:40.00 |  4:43.32 |    241500    |   262756
Range status and errors
Selected range
     Filename C:\Documents and Settings\Borya\Desktop\SanEs\cd1\Santa Esmeralda - Gloria.wav
     Peak level 94.4 %
     Extraction speed 3.1 X
     Range quality 100.0 %
     Test CRC 4CE9CB24
     Copy CRC 4CE9CB24
     Copy OK
No errors occurred
AccurateRip summary
Track  1  accurately ripped (confidence 1)  [C7996B0C]  (AR v1)
Track  2  accurately ripped (confidence 1)  [83F79EB9]  (AR v1)
Track  3  accurately ripped (confidence 1)  [27769AD0]  (AR v1)
Track  4  accurately ripped (confidence 1)  [D0D2738A]  (AR v1)
Track  5  accurately ripped (confidence 1)  [60875786]  (AR v1)
Track  6  accurately ripped (confidence 1)  [3ACC880C]  (AR v1)
Track  7  accurately ripped (confidence 1)  [646A9C16]  (AR v1)
Track  8  accurately ripped (confidence 1)  [5036AB4E]  (AR v1)
Track  9  accurately ripped (confidence 1)  [ED260F0D]  (AR v1)
Track 10  accurately ripped (confidence 1)  [6037F5BA]  (AR v1)
Track 11  accurately ripped (confidence 1)  [83EEDB2F]  (AR v1)
Track 12  accurately ripped (confidence 1)  [086CACDF]  (AR v1)
All tracks accurately ripped
End of status report
==== Log checksum 939B5680B8C07F5EEF898170BC5147384D984C6BC5326ADD5FC614B34ACE9175 ====

Отчёт auCDtect Task manager:

Код:
-----------------------
DON'T MODIFY THIS FILE
-----------------------
PERFORMER: auCDtect Task Manager, ver. 1.5.1RC4 build 1.5.1.5
Copyright (c) 2008-2010 y-soft. All rights reserved
http://y-soft.org
ANALYZER: auCDtect: CD records authenticity detector, version 0.8.2
Copyright (c) 2004 Oleg Berngardt. All rights reserved.
Copyright (c) 2004 Alexander Djourik. All rights reserved.
FILE: Santa Esmeralda - Gloria.flac
  Size: 372157644 Hash: 0043F5314162271189F8CABA36E15485 Accuracy: -m0
  Conclusion: MPEG 95%
  Signature: 8708A480FC0C29D47EBE36595DEF68C573B33079

Спектрограмма:

 

Hasta Luego


Треклист:
01. Querida Te Quiero (4:29)
02. Hasta Luego (5:27)
03. Bed Of Love (4:18)
04. Techno Latino (5:02)
05. Deja' Voo Do (4:50)
06. You're My Everything (Pop Mix) (4:36)
07. Ho My Lady (4:44)
08. I Got It Bad (3:49)
09. Lonely Night (4:49)
10. Don't Let Me Be Misunderstood (Latin Mix) (5:03)
11. Gloria (Club Mix) (4:54)
12. House Of The Rising Sun (Club Mix) (5:45)
-Продолжительность: 00:57:46-

Отчёт ЕАС:

Код:
Exact Audio Copy V1.0 beta 3 from 29. August 2011
EAC extraction logfile from 27. June 2013, 12:35
Santa Esmeralda / Hasta Luego
Used drive  : SAMSUNG DVD-ROM SD-616E   Adapter: 3  ID: 0
Read mode               : Secure
Utilize accurate stream : Yes
Defeat audio cache      : Yes
Make use of C2 pointers : No
Read offset correction                      : 12
Overread into Lead-In and Lead-Out          : No
Fill up missing offset samples with silence : Yes
Delete leading and trailing silent blocks   : No
Null samples used in CRC calculations       : Yes
Used interface                              : Native Win32 interface for Win NT & 2000
Used output format              : User Defined Encoder
Selected bitrate                : 768 kBit/s
Quality                         : High
Add ID3 tag                     : No
Command line compressor         : C:\Program Files\Exact Audio Copy\FLAC\FLAC.EXE
Additional command line options : -6 -V -T "ARTIST=%artist%" -T "TITLE=%title%" -T "ALBUM=%albumtitle%" -T "DATE=%year%" -T "TRACKNUMBER=%tracknr%" -T "GENRE=%genre%" -T "COMMENT=%comment%" -T "BAND=%albuminterpret%" -T "ALBUMARTIST=%albuminterpret%" -T "COMPOSER=%composer%" %haslyrics%--tag-from-file=LYRICS="%lyricsfile%"%haslyrics% -T "DISCNUMBER=%cdnumber%" -T "TOTALDISCS=%totalcds%" -T "TOTALTRACKS=%numtracks%" %hascover%--picture="%coverfile%"%hascover% %source% -o %dest%
TOC of the extracted CD
     Track |   Start  |  Length  | Start sector | End sector
    ---------------------------------------------------------
        1  |  0:00.00 |  4:28.67 |         0    |    20166
        2  |  4:28.67 |  5:27.01 |     20167    |    44692
        3  |  9:55.68 |  4:18.10 |     44693    |    64052
        4  | 14:14.03 |  5:01.48 |     64053    |    86675
        5  | 19:15.51 |  4:50.03 |     86676    |   108428
        6  | 24:05.54 |  4:36.08 |    108429    |   129136
        7  | 28:41.62 |  4:44.02 |    129137    |   150438
        8  | 33:25.64 |  3:48.61 |    150439    |   167599
        9  | 37:14.50 |  4:49.37 |    167600    |   189311
       10  | 42:04.12 |  5:02.69 |    189312    |   212030
       11  | 47:07.06 |  4:54.29 |    212031    |   234109
       12  | 52:01.35 |  5:44.43 |    234110    |   259952
Range status and errors
Selected range
     Filename C:\Documents and Settings\Borya\Desktop\SanEs\cd2\Santa Esmeralda - Hasta Luego.wav
     Peak level 94.4 %
     Extraction speed 2.8 X
     Range quality 100.0 %
     Test CRC 5DBDEE77
     Copy CRC 5DBDEE77
     Copy OK
No errors occurred
AccurateRip summary
Track  1  accurately ripped (confidence 1)  [C1AFEE62]  (AR v1)
Track  2  accurately ripped (confidence 1)  [536C4142]  (AR v1)
Track  3  accurately ripped (confidence 1)  [0294D1C7]  (AR v1)
Track  4  accurately ripped (confidence 1)  [EB3E0CBA]  (AR v1)
Track  5  accurately ripped (confidence 1)  [40693918]  (AR v1)
Track  6  accurately ripped (confidence 1)  [E2A6FF55]  (AR v1)
Track  7  accurately ripped (confidence 1)  [50750327]  (AR v1)
Track  8  accurately ripped (confidence 1)  [1D7B417E]  (AR v1)
Track  9  accurately ripped (confidence 1)  [257D25B2]  (AR v1)
Track 10  accurately ripped (confidence 1)  [3045E40A]  (AR v1)
Track 11  accurately ripped (confidence 1)  [CA0B9BA9]  (AR v1)
Track 12  accurately ripped (confidence 1)  [9BAB3F17]  (AR v1)
All tracks accurately ripped
End of status report
==== Log checksum 85C0803F9F51DB31FDEBBDCA6AE78C875A5B8A159557E29423E77B73BC939587 ====

Отчёт auCDtect Task manager:

Код:
-----------------------
DON'T MODIFY THIS FILE
-----------------------
PERFORMER: auCDtect Task Manager, ver. 1.5.1RC4 build 1.5.1.5
Copyright (c) 2008-2010 y-soft. All rights reserved
http://y-soft.org
ANALYZER: auCDtect: CD records authenticity detector, version 0.8.2
Copyright (c) 2004 Oleg Berngardt. All rights reserved.
Copyright (c) 2004 Alexander Djourik. All rights reserved.
FILE: Santa Esmeralda - Hasta Luego.flac
  Size: 370949811 Hash: 5D711DE396889350BC23E8E6BEE62901 Accuracy: -m0
  Conclusion: MPEG 95%
  Signature: 056749848A8795FE047337B769B1CB4E02010561

Спектрограмма:

 
Other forum [Profile] [PM]
Display posts from previous:    
Reply to topic

The time now is: Today 06:10

All times are GMT + 3 Hours



You cannot post new topics in this forum
You cannot reply to topics in this forum
You cannot edit your posts in this forum
You cannot delete your posts in this forum
You cannot vote in polls in this forum
You cannot attach files in this forum
You cannot download files in this forum