Today is a free download without charge Download

Долговязый Джон Сильвер / Long John Silver (Байрон Хэскин / Byron Haskin)[1954.,Приключения] DVDRip

Reply to topic
 
Author
Message

sashau ®

Gender:

Longevity: 7 years 11 months

Posts: 3497

Торрент-статистика

Post 10-Oct-2013 12:20

[Quote]

Долговязый Джон Сильвер / Long John Silver - Год выпуска: 1954
Жанр: Приключения
Описание фильма:
Продолжение фильма "Остров Сокровищ" 1950г. созданного студией Уолта Диснея. Поскольку разница в выходе фильмов составила 4 года, Джима играет уже другой актёр - Кит Тейлор. Но в роли Сильвера, всё тот же, неподражаемый Роберт Ньютон. Действие фильма происходит, примерно, год спустя после событий изложенных в фильме "Остров Сокровищ" 1950г., который заканчивается тем, что Сильвер в корабельной шлюпке уплывает с Острова Сокровищ в сторону Ямайки. Видно по причине отсутствия компаса и прочих навигационных принадлежностей, которыми Сильвер всё равно пользоваться не умел, Сильвер сбился с курса и попал не на Ямайку, а в городок Порто-Белло (современная Колумбия), где пристроился в приживалы к некой мадам Пинкер - хозяйке трактира. В этом трактире Сильвер, в окружении новой шайки пиратов, коротает дни и ночи за стаканчиком рому. Между делом он помышляет вернуться на Остров Сокровищ и прикарманить оставшиеся сокровища. Но в один прекрасный вечер, размеренный уклад жизни Сильвера был нарушен известием о том, что кровожадный пират Мендоза напал, неподалёку от Порто-Белло, на бриг "Надежда Бристоля" и захватил в заложники дочку тамошнего губернатора, а заодно, прихватил корабельного юнгу, некоего Джима Хокинса…
Режиссер: Байрон Хэскин / Byron Haskin
Актеры: Роберт Ньютон, Конни Гилкрайст, Ллойд Беррелл, Кит Тейлор, Грант Тейлор, Род Тейлор, Харви Эдамс, Мюриэль Штейнбек, Генри Гилберт, Джон Брунскил, Эрик Рейман
Продолжительность: 01:41:05
Качество видео: DVDRip
Перевод: Одноголосый закадровый
Вид субтитров: Отдельным файлом русский язык

Видеокодек: Xvid
Битрейт видео: ~1806 Кбит/сек
Размер кадра: 704x272
Аудиокодек: MP3, 2 ch
Битрейт аудио: 128 Кбит/сек
Audio 1: MP3, 2 ch 128 Кбит/сек - русский
Audio 2: MP3, 2 ch 128 Кбит/сек - английский

MediaInfo:

Общее
Полное имя : W:\Интересно\Остров Сокровищ\Долговязый Джон Сильвер\Долговязый Джон Сильвер (1954) DVDRip\Dolgoviaziy_Dgon_Silver.avi
Формат : AVI
Формат/Информация : Audio Video Interleave
Размер файла : 1,47 Гбайт
Продолжительность : 1 ч. 41 м.
Общий поток : 2076 Кбит/сек
Программа кодирования : VirtualDubMod 1.5.10.2 (build 2540/release)
Библиотека кодирования : VirtualDubMod build 2540/release
Видео
Идентификатор : 0
Формат : MPEG-4 Visual
Профиль формата : Advanced [email protected]
Параметр BVOP формата : 2
Параметр QPel формата : Нет
Параметр GMC формата : Без точки перехода
Параметр матрицы формата : Default (MPEG)
Режим смешивания : Сжатый битовый поток
Идентификатор кодека : XVID
Идентификатор кодека/Подсказка : XviD
Продолжительность : 1 ч. 41 м.
Битрейт : 1806 Кбит/сек
Ширина : 704 пикселя
Высота : 272 пикселя
Соотношение сторон : 2,847
Частота кадров : 25,000 кадров/сек
Цветовое пространство : YUV
Субдискретизация насыщенности : 4:2:0
Битовая глубина : 8 бит
Тип развёртки : Прогрессивная
Метод сжатия : С потерями
Бит/(Пиксели*Кадры) : 0.377
Размер потока : 1,28 Гбайт (87%)
Библиотека кодирования : XviD 1.2.0.dev47 (UTC 2006-11-01)
Аудио #1
Идентификатор : 1
Формат : MPEG Audio
Версия формата : Version 1
Профиль формата : Layer 3
Режим : Joint stereo
Расширение режима : MS Stereo
Идентификатор кодека : 55
Идентификатор кодека/Подсказка : MP3
Продолжительность : 1 ч. 41 м.
Вид битрейта : Постоянный
Битрейт : 128 Кбит/сек
Каналы : 2 канала
Частота : 48,0 КГц
Метод сжатия : С потерями
Размер потока : 92,5 Мбайт (6%)
Выравнивание : Соединение по промежуткам
Продолжительность промежутка : 40 мс. (1,00 видеокадр)
Время предзагрузки промежутка : 504 мс.
Аудио #2
Идентификатор : 2
Формат : MPEG Audio
Версия формата : Version 1
Профиль формата : Layer 3
Режим : Joint stereo
Расширение режима : MS Stereo
Идентификатор кодека : 55
Идентификатор кодека/Подсказка : MP3
Продолжительность : 1 ч. 41 м.
Вид битрейта : Постоянный
Битрейт : 128 Кбит/сек
Каналы : 2 канала
Частота : 48,0 КГц
Метод сжатия : С потерями
Размер потока : 92,5 Мбайт (6%)
Выравнивание : Соединение по промежуткам
Продолжительность промежутка : 40 мс. (1,00 видеокадр)
Время предзагрузки промежутка : 504 мс.
Скриншоты:
         
         
Фильм 1 "Остров Сокровищ / Treasure Island (1950)" на Dark os
Other forum [Profile] [PM]
Similar theme
Forum Topic Author Torrent Replies Last Post
./templates/default/images/folder_dl.gif Медицина и Здоровье Сергей Бубновский | Активное долголетие, или как вернуть молодость вашему телу (2015) [RTF, FB2] Omen
1 | 0

0 | 1876

15

2015-04-27 22:12
Omen Latest
./templates/default/images/folder_dl.gif Психология, Тренинг, Саморазвитие Кевин Хорсли | Безграничная память. Запоминай быстро, помни долго (2018) [FB2] }{@R0N
1 | 0

0 | 862

10

2018-07-13 14:02
}{@R0N Latest
Display posts from previous:    
Reply to topic

The time now is: Today 16:36

All times are GMT + 3 Hours



You cannot post new topics in this forum
You cannot reply to topics in this forum
You cannot edit your posts in this forum
You cannot delete your posts in this forum
You cannot vote in polls in this forum
You cannot attach files in this forum
You cannot download files in this forum