Today is a free download without charge Download

VA - Песни на стихи Алексея Фатьянова (2006) [FLAC|Lossless]

Reply to topic
 
Author
Message

UndegraundMen ®

Longevity: 6 years 6 months

Posts: 25145

Торрент-статистика

Post 31-Oct-2013 11:04

[Quote]

VA - Песни на стихи Алексея Фатьянова (2006)- Год: 2006
Жанр: Retro
Продолжительность: 01:09:47
Лейбл: ФГУП Фирма «Мелодия»
Каталожный №: MEL CD 60 01135
Сканы: Комплект
Кодек: FLAC (image+.cue)
Битрейт: Lossless
Треклист:
01. Анс. им. Александрова, сол. В.Пучков - На солнечной поляночке [3:45]
02. Анс. им. Александрова, сол. Г.Виноградов - Соловьи [5:55]
03. В.Нечаев - Ничего не говорила [2:07]
04. В.Нечаев - Звёздочка [3:19]
05. В.Бунчиков, В.Нечаев - Давно мы дома не были [2:36]
06. В.Нечаев - Где ж ты, мой сад? [3:35]
07. Хор им. Пятницкого, сол. Н.Зазнобина - Наш город [4:14]
08. Л.Кострица - Потому, что мы пилоты (из к/ф 'Небесный тихоход') [3:06]
09. М.Бернес - Три года ты мне снилась (из к/ф 'Большая жизнь') [3:07]
10. Л.Утёсов - Когда проходит молодость [2:59]
11. К.Шульженко - Где же вы теперь, друзья-однополчане? [3:26]
12. Анс. им. Александрова, сол. Г.Виноградов - В городском саду [3:25]
13. Л.Лядова, Н.Пантелеева - Поёт гармонь за Вологдой [2:17]
14. Большой хор Министерства обороны - Мы люди большого полёта [3:05]
15. Г.Виноградов - Золотые огоньки (из к/ф 'Голубые дороги') [2:44]

Продолжение треклиста...

16. Р.Лисициан, К.Лисициан - На крылечке твоём (из к/ф 'Свадьба с приданым') [3:04]
17. В.Доронин - Хвастать, милая, не стану (из к/ф 'Свадьба с приданым') [2:00]
18. Н.Рыбников - Когда весна придёт... (из к/ф 'Весна на Заречной улице') [3:25]
19. Л.Харитонов - Ромашка моя (из к/ф 'Солдат Иван Бровкин') [2:25]
20. М.Кузнецов - Караваны птиц надо мной летят (из к/ф 'Без вести пропавший') [2:45]
21. Н.Рыбников - За Рогожской заставой (из к/ф 'Дом, в котором я живу') [2:40]
22. В.Нечаев - Дорога, дорога (из к/ф 'Очередной рейс') [3:47]

-

Содержимое индексной карты (.cue):

Код:
REM GENRE "Retro, Сов. эстрада"
REM DATE 2006
REM DISCID 60105B16
REM COMMENT "ExactAudioCopy v1.0b3"
PERFORMER "Various Artists"
TITLE "Песни на стихи Алексея Фатьянова"
FILE "Various Artists - Песни на стихи Алексея Фатьянова.flac" WAVE
  TRACK 01 AUDIO
    TITLE "На солнечной поляночке"
    PERFORMER "Анс. им. Александрова, сол. В.Пучков"
    FLAGS DCP
    INDEX 00 00:00:00
    INDEX 01 00:02:00
  TRACK 02 AUDIO
    TITLE "Соловьи"
    PERFORMER "Анс. им. Александрова, сол. Г.Виноградов"
    FLAGS DCP
    INDEX 00 03:43:00
    INDEX 01 03:47:00
  TRACK 03 AUDIO
    TITLE "Ничего не говорила"
    PERFORMER "В.Нечаев"
    FLAGS DCP
    INDEX 00 09:37:64
    INDEX 01 09:41:64
  TRACK 04 AUDIO
    TITLE "Звёздочка"
    PERFORMER "В.Нечаев"
    FLAGS DCP
    INDEX 00 11:44:71
    INDEX 01 11:48:71
  TRACK 05 AUDIO
    TITLE "Давно мы дома не были"
    PERFORMER "В.Бунчиков, В.Нечаев"
    FLAGS DCP
    INDEX 00 15:03:43
    INDEX 01 15:07:43
  TRACK 06 AUDIO
    TITLE "Где ж ты, мой сад?"
    PERFORMER "В.Нечаев"
    FLAGS DCP
    INDEX 00 17:39:49
    INDEX 01 17:43:49
  TRACK 07 AUDIO
    TITLE "Наш город"
    PERFORMER "Хор им. Пятницкого, сол. Н.Зазнобина"
    FLAGS DCP
    INDEX 00 21:15:07
    INDEX 01 21:19:07
  TRACK 08 AUDIO
    TITLE "Потому, что мы пилоты (из к/ф 'Небесный тихоход')"
    PERFORMER "Л.Кострица"
    FLAGS DCP
    INDEX 00 25:28:55
    INDEX 01 25:32:55
  TRACK 09 AUDIO
    TITLE "Три года ты мне снилась (из к/ф 'Большая жизнь')"
    PERFORMER "М.Бернес"
    FLAGS DCP
    INDEX 00 28:35:13
    INDEX 01 28:39:13
  TRACK 10 AUDIO
    TITLE "Когда проходит молодость"
    PERFORMER "Л.Утёсов"
    FLAGS DCP
    INDEX 00 31:42:02
    INDEX 01 31:46:02
  TRACK 11 AUDIO
    TITLE "Где же вы теперь, друзья-однополчане?"
    PERFORMER "К.Шульженко"
    FLAGS DCP
    INDEX 00 34:40:47
    INDEX 01 34:44:47
  TRACK 12 AUDIO
    TITLE "В городском саду"
    PERFORMER "Анс. им. Александрова, сол. Г.Виноградов"
    FLAGS DCP
    INDEX 00 38:06:47
    INDEX 01 38:10:47
  TRACK 13 AUDIO
    TITLE "Поёт гармонь за Вологдой"
    PERFORMER "Л.Лядова, Н.Пантелеева"
    FLAGS DCP
    INDEX 00 41:31:51
    INDEX 01 41:35:51
  TRACK 14 AUDIO
    TITLE "Мы люди большого полёта"
    PERFORMER "Большой хор Министерства обороны"
    FLAGS DCP
    INDEX 00 43:48:56
    INDEX 01 43:52:56
  TRACK 15 AUDIO
    TITLE "Золотые огоньки (из к/ф 'Голубые дороги')"
    PERFORMER "Г.Виноградов"
    FLAGS DCP
    INDEX 00 46:53:71
    INDEX 01 46:57:71
  TRACK 16 AUDIO
    TITLE "На крылечке твоём (из к/ф 'Свадьба с приданым')"
    PERFORMER "Р.Лисициан, К.Лисициан"
    FLAGS DCP
    INDEX 00 49:37:71
    INDEX 01 49:41:71
  TRACK 17 AUDIO
    TITLE "Хвастать, милая, не стану (из к/ф 'Свадьба с приданым')"
    PERFORMER "В.Доронин"
    FLAGS DCP
    INDEX 00 52:42:32
    INDEX 01 52:46:32
  TRACK 18 AUDIO
    TITLE "Когда весна придёт... (из к/ф 'Весна на Заречной улице')"
    PERFORMER "Н.Рыбников"
    FLAGS DCP
    INDEX 00 54:42:32
    INDEX 01 54:46:32
  TRACK 19 AUDIO
    TITLE "Ромашка моя (из к/ф 'Солдат Иван Бровкин')"
    PERFORMER "Л.Харитонов"
    FLAGS DCP
    INDEX 00 58:07:56
    INDEX 01 58:11:56
  TRACK 20 AUDIO
    TITLE "Караваны птиц надо мной летят (из к/ф 'Без вести пропавший')"
    PERFORMER "М.Кузнецов"
    FLAGS DCP
    INDEX 00 60:33:08
    INDEX 01 60:37:08
  TRACK 21 AUDIO
    TITLE "За Рогожской заставой (из к/ф 'Дом, в котором я живу')"
    PERFORMER "Н.Рыбников"
    FLAGS DCP
    INDEX 00 63:18:43
    INDEX 01 63:22:43
  TRACK 22 AUDIO
    TITLE "Дорога, дорога (из к/ф 'Очередной рейс')"
    PERFORMER "В.Нечаев"
    FLAGS DCP
    INDEX 00 65:58:55
    INDEX 01 66:02:55

Отчёт ЕАС:

Код:
Exact Audio Copy V1.0 beta 3 from 29. August 2011
EAC extraction logfile from 3. May 2013, 12:50
Various Artists / Песни на стихи Алексея Фатьянова
Used drive  : PLEXTOR DVDR   PX-L890SA   Adapter: 1  ID: 0
Read mode               : Secure
Utilize accurate stream : Yes
Defeat audio cache      : Yes
Make use of C2 pointers : No
Read offset correction                      : 6
Overread into Lead-In and Lead-Out          : No
Fill up missing offset samples with silence : Yes
Delete leading and trailing silent blocks   : No
Null samples used in CRC calculations       : Yes
Used interface                              : Installed external ASPI interface
Used output format              : User Defined Encoder
Selected bitrate                : 1024 kBit/s
Quality                         : High
Add ID3 tag                     : No
Command line compressor         : C:\Program Files (x86)\Exact Audio Copy\wavpack.exe
Additional command line options : -hlm %source%
TOC of the extracted CD
     Track |   Start  |  Length  | Start sector | End sector
    ---------------------------------------------------------
        1  |  0:02.00 |  3:45.00 |       150    |    17024
        2  |  3:47.00 |  5:54.64 |     17025    |    43638
        3  |  9:41.64 |  2:07.07 |     43639    |    53170
        4  | 11:48.71 |  3:18.47 |     53171    |    68067
        5  | 15:07.43 |  2:36.06 |     68068    |    79773
        6  | 17:43.49 |  3:35.33 |     79774    |    95931
        7  | 21:19.07 |  4:13.48 |     95932    |   114954
        8  | 25:32.55 |  3:06.33 |    114955    |   128937
        9  | 28:39.13 |  3:06.64 |    128938    |   142951
       10  | 31:46.02 |  2:58.45 |    142952    |   156346
       11  | 34:44.47 |  3:26.00 |    156347    |   171796
       12  | 38:10.47 |  3:25.04 |    171797    |   187175
       13  | 41:35.51 |  2:17.05 |    187176    |   197455
       14  | 43:52.56 |  3:05.15 |    197456    |   211345
       15  | 46:57.71 |  2:44.00 |    211346    |   223645
       16  | 49:41.71 |  3:04.36 |    223646    |   237481
       17  | 52:46.32 |  2:00.00 |    237482    |   246481
       18  | 54:46.32 |  3:25.24 |    246482    |   261880
       19  | 58:11.56 |  2:25.27 |    261881    |   272782
       20  | 60:37.08 |  2:45.35 |    272783    |   285192
       21  | 63:22.43 |  2:40.12 |    285193    |   297204
       22  | 66:02.55 |  3:46.47 |    297205    |   314201
Range status and errors
Selected range
     Filename D:\wwphil\Various Artists - Песни на стихи Алексея Фатьянова\Various Artists - Песни на стихи Алексея Фатьянова.wav
     Peak level 100.0 %
     Extraction speed 9.4 X
     Range quality 100.0 %
     Test CRC 13ED7BF3
     Copy CRC 13ED7BF3
     Copy OK
No errors occurred
AccurateRip summary
Track  1  not present in database
Track  2  not present in database
Track  3  not present in database
Track  4  not present in database
Track  5  not present in database
Track  6  not present in database
Track  7  not present in database
Track  8  not present in database
Track  9  not present in database
Track 10  not present in database
Track 11  not present in database
Track 12  not present in database
Track 13  not present in database
Track 14  not present in database
Track 15  not present in database
Track 16  not present in database
Track 17  not present in database
Track 18  not present in database
Track 19  not present in database
Track 20  not present in database
Track 21  not present in database
Track 22  not present in database
None of the tracks are present in the AccurateRip database
End of status report
==== Log checksum 4821F5146F263BBD03529262D985D07F772E7F1BE2B02A2AF44C328D523A264D ====

Отчёт auCDtect Task Manager:

Код:
-----------------------
DON'T MODIFY THIS FILE
-----------------------
PERFORMER: auCDtect Task Manager, ver. 1.6.0 RC1 build 1.6.0.1
Copyright (c) 2008-2010 y-soft. All rights reserved
http://y-soft.org
ANALYZER: auCDtect: CD records authenticity detector, version 0.8.2
Copyright (c) 2004 Oleg Berngardt. All rights reserved.
Copyright (c) 2004 Alexander Djourik. All rights reserved.
FILE: Various Artists - Песни на стихи Алексея Фатьянова.flac
  Size: 317563458 Hash: 002BB3CE89D52040F1ADD06715BD3987 Accuracy: -m0
  Conclusion: CDDA 100%
  Signature: 9A567CD575F3A9C658454D41C8033DE1E9D0AC8D

-

Доп.Информация

Записи: 1943, 1964-1967, 1974-1976, 1982 г.г.
Диск издан при поддержке и участии наследников А.И.Фатьянова и Администрации Вязниковского района Владимирской обл.
Ремастеринг: М.Пилипов
Редактор: Ю.Сапрыкина
Дизайн: Д.Трифонова
Составители: А.Фатьянова, М.Буланова
Other forum [Profile] [PM]
Display posts from previous:    
Reply to topic

The time now is: Today 23:07

All times are GMT + 3 Hours



You cannot post new topics in this forum
You cannot reply to topics in this forum
You cannot edit your posts in this forum
You cannot delete your posts in this forum
You cannot vote in polls in this forum
You cannot attach files in this forum
You cannot download files in this forum