Today is a free download without charge Download

Тараканы - Страх И Ненависть (2002) [FLAC|Lossless]

Reply to topic
 
Author
Message

UndegraundMen ®

Longevity: 6 years 7 months

Posts: 25145

Торрент-статистика

Post 06-Nov-2013 11:02

[Quote]

Тараканы - Страх И Ненависть- Страна: Россия
Жанр: Rock
Стиль: Punk
Год: 2002
Номер по каталогу: FL 3188 - 2
Продолжительность: 00:38:38
Кодек: FLAC
Битрейт: Lossless
Треклист:
01. FM молчит (02:19)
02. Я не верю (02:23)
03. Я смотрю на них (03:08)
04. Промокампания (02:08)
05. Реальный панк? (02:22)
06. Как в 3-й Quake (02:01)
07. Летом (02:21)
08. Кто-то другой (02:16)
09. Я тебя люблю (02:38)
10. Когда я куплю себе пистолет (01:35)
11. Письмо к Бритни (02:45)
12. Русский рок (03:06)
13. Сашенька (04:26)
14. Житель столицы (02:12)
15. Оставайся 16-летней (02:50)

Exact Audio Copy

Код:
Exact Audio Copy V0.99 prebeta 3 from 28. July 2007
Отчёт EAC об извлечении, выполненном 29. марта 2008, 20:53
Тараканы! / Страх И Ненависть
Дисковод: ASUS    DRW-1814BLT   Adapter: 2  ID: 0
Режим чтения                 : Достоверность
Использование точного потока : Да
Отключение кэша аудио        : Да
Использование указателей C2  : Нет
Коррекция смещения при чтении                     : 6
Способность читать области Lead-in и Lead-out     : Нет
Заполнение пропущенных сэмплов тишиной            : Да
Удаление блоков с тишиной в начале и конце        : Нет
При вычислениях CRC использовались нулевые сэмплы : Да
Интерфейс                                         : Встроенный Win32-интерфейс для Win NT/2000
Выходной формат          : Пользовательский кодировщик
Выбранный битрейт        : 128 kBit/s
Качество                 : Высокий
Добавление ID3-тэга      : Нет
Утилита сжатия           : C:\Program Files\Flac\flac.exe
Дополнительные параметры : -T "artist=%a" -T "title=%t" -T "album=%g" -T "date=%y" -T "tracknumber=%n" -T "genre=%m" -5 %s
TOC извлечённого CD
     Трек |   Старт  | Длительность | Начальный сектор | Конечный сектор
    ---------------------------------------------------------------------
       1  |  0:00.00 |    2:19.65   |           0      |      10489
       2  |  2:19.65 |    2:23.51   |       10490      |      21265
       3  |  4:43.41 |    3:08.58   |       21266      |      35423
       4  |  7:52.24 |    2:08.36   |       35424      |      45059
       5  | 10:00.60 |    2:22.04   |       45060      |      55713
       6  | 12:22.64 |    2:01.67   |       55714      |      64855
       7  | 14:24.56 |    2:21.23   |       64856      |      75453
       8  | 16:46.04 |    2:16.54   |       75454      |      85707
       9  | 19:02.58 |    2:38.36   |       85708      |      97593
      10  | 21:41.19 |    1:35.29   |       97594      |     104747
      11  | 23:16.48 |    2:45.70   |      104748      |     117192
      12  | 26:02.43 |    3:06.12   |      117193      |     131154
      13  | 29:08.55 |    4:26.10   |      131155      |     151114
      14  | 33:34.65 |    2:12.62   |      151115      |     161076
      15  | 35:47.52 |    2:50.30   |      161077      |     173856
Характеристики диапазона извлечения и сообщения об ошибках
Выбранный диапазон
     Имя файла J:\Музыка в Lossless формате\Тараканы!\2001 - Страх И Ненависть\Тараканы! - Страх И Ненависть.wav
     Пиковый уровень 100.0 %
     Качество диапазона 99.9 %
     CRC копии 5F831222
     Копирование... OK
Ошибок не произошло
Конец отчёта

Отчёт auCDtect

Код:
-----------------------
DON'T MODIFY THIS FILE
-----------------------
PERFORMER: auCDtect Task Manager, ver. 1.5.1RC6 build 1.5.1.7
Copyright (c) 2008-2010 y-soft. All rights reserved
http://y-soft.org
ANALYZER: auCDtect: CD records authenticity detector, version 0.8.2
Copyright (c) 2004 Oleg Berngardt. All rights reserved.
Copyright (c) 2004 Alexander Djourik. All rights reserved.
FILE: Тараканы! - Страх И Ненависть.flac
  Size: 310198840 Hash: 693D92EC184C57B6936C7C41D58D14E8 Accuracy: -m0
  Conclusion: CDDA 99%
  Signature: 1CE80E95F734A872BDD76BEF34F1E0B9E5430CF4

Спектрограмма:

 

-

Я смотрю на них. (официальный клип)

Other forum [Profile] [PM]
Display posts from previous:    
Reply to topic

The time now is: Today 09:15

All times are GMT + 3 Hours



You cannot post new topics in this forum
You cannot reply to topics in this forum
You cannot edit your posts in this forum
You cannot delete your posts in this forum
You cannot vote in polls in this forum
You cannot attach files in this forum
You cannot download files in this forum