Today is a free download without charge Download

Animal Planet: Планета Мутантов: Австралия / Mutant Planet: Australia (2010) HDTVRip [H.264/1080i]

Reply to topic
 
Author
Message

UndegraundMen ®

Longevity: 6 years 8 months

Posts: 25145

Торрент-статистика

Post 20-Nov-2013 21:45

[Quote]

Планета Мутантов: Австралия / Mutant Planet: Australia (2010) HDTVRip [H.264/1080i]- Язык: русский, английский
Режиссер / Телекомпания: Animal Planet
Год выпуска: 2010
Жанр: Документальный, Телепередача
Описание:
Приготовьтесь отправиться в удивительные миры, в которых природа решила нарушить все мыслимые и немыслимые правила и законы. "Планета мутантов" приглашает зрителей проникнуть вглубь животного царства и увидеть, как фантастические эволюционные процессы и силы природы повлияли на происхождение и развитие некоторых необыкновенных животных. Каждая из увлекательных серий - это рассказ о том, как в результате мощных тектонических процессов, происходивших на планете, на свет появились особи, вынужденные активно приспосабливаться к условиям окружающей среды. Мы посетим Новую Зеландию, Австралию, Бразилию, Африку, Мадагаскар и Японию; и всюду сможем проследить за оригинальным образом жизни и нестандартными формами поведения животных, мутировавших с течением времени.

Продолжительность: 00:44:14
Качество видео: HDTVRip [1080i]
Перевод: Одноголосый закадровый, профессиональный
Видеокодек: MPEG-4 AVC/H.264
Битрейт видео: ~6 875 Kbps
Размер кадра: 1920 x 1080
Аудио :
1. АС3, 5.1 ch, 384 kbps [русский]
2. АС3, 5.1 ch, 384 kbps [английский]

MediaInfo

Format : MPEG-TS
File size : 2.49 GiB
Duration : 44mn 14s
Overall bit rate mode : Variable
Overall bit rate : 8 048 Kbps
Video
ID : 324 (0x144)
Menu ID : 14104 (0x3718)
Format : AVC
Format/Info : Advanced Video Codec
Format profile : [url=mailto:[email protected]][email protected][/url]
Format settings, CABAC : Yes
Format settings, ReFrames : 3 frames
Codec ID : 27
Duration : 44mn 14s
Bit rate : 6 875 Kbps
Width : 1 920 pixels
Height : 1 080 pixels
Display aspect ratio : 16:9
Frame rate : 25.000 fps
Standard : Component
Color space : YUV
Chroma subsampling : 4:2:0
Bit depth : 8 bits
Scan type : Interlaced
Scan order : Top Field First
Bits/(Pixel*Frame) : 0.133
Stream size : 2.12 GiB (85%)
Color primaries : BT.709
Transfer characteristics : BT.709
Matrix coefficients : BT.709
Audio #1
ID : 404 (0x194)
Menu ID : 14104 (0x3718)
Format : AC-3
Format/Info : Audio Coding 3
Mode extension : CM (complete main)
Format settings, Endianness : Big
Codec ID : 6
Duration : 44mn 14s
Bit rate mode : Constant
Bit rate : 384 Kbps
Channel(s) : 6 channels
Channel positions : Front: L C R, Side: L R, LFE
Sampling rate : 48.0 KHz
Bit depth : 16 bits
Compression mode : Lossy
Delay relative to video : 124ms
Stream size : 122 MiB (5%)
Language : Russian
Language, more info : Clean effects
Audio #2
ID : 414 (0x19E)
Menu ID : 14104 (0x3718)
Format : AC-3
Format/Info : Audio Coding 3
Mode extension : CM (complete main)
Format settings, Endianness : Big
Codec ID : 6
Duration : 44mn 14s
Bit rate mode : Constant
Bit rate : 384 Kbps
Channel(s) : 6 channels
Channel positions : Front: L C R, Side: L R, LFE
Sampling rate : 48.0 KHz
Bit depth : 16 bits
Compression mode : Lossy
Delay relative to video : 70ms
Stream size : 122 MiB (5%)
Language : English
Language, more info : Clean effects
Скриншоты:
         
Other forum [Profile] [PM]
Display posts from previous:    
Reply to topic

The time now is: Today 18:45

All times are GMT + 3 Hours



You cannot post new topics in this forum
You cannot reply to topics in this forum
You cannot edit your posts in this forum
You cannot delete your posts in this forum
You cannot vote in polls in this forum
You cannot attach files in this forum
You cannot download files in this forum