Today is a free download without charge Download

U2 - Ordinary Love (Single) (2013) [MP3|224 кб/с]

Reply to topic
 
Author
Message

UndegraundMen ®

Longevity: 8 years 4 months

Posts: 25145

Торрент-статистика

Post 09-Dec-2013 22:50

[Quote]

U2 - Ordinary Love (Single) (2013)- Год: 2013
Жанр: Rock, Alternative Rock, Indie Rock
Продолжительность: 00:07:41
Кодек: MP3
Битрейт: 224 кб/с
Тип битрейта: VBR
Треклист:
01. Ordinary Love 3:39
02. Breathe (Mandela Version) 4:02

Дополнительная информация:

http://en.wikipedia.org/wiki/Ordinary_Love_(U2_song)
Не так давно, всеми любимая ирландская группа U2 записала новую песню Ordinary Love. Эта композиция появилась не случайно, Ordinary Love от U2 станет саундтреком к фильму о Нельсоне Манделе «Долгая дорога к свободе».
Премьера фильма и продажи сингла стартуют в один день, 29 ноября 2013 года. Этот трек – первая песня культового коллектива за последние три года. В апреле следующего года группа обещает выпустить новую пластинку. Название альбома пока не известно.

Отчёт Mediainfo:

Код:
General
Complete name                            : /Users/user/Music/U2 - Ordinary Love (2013)/01 - Ordinary Love.mp3
Format                                   : MPEG Audio
File size                                : 6.36 MiB
Duration                                 : 3mn 39s
Overall bit rate mode                    : Variable
Overall bit rate                         : 243 Kbps
Album                                    : Ordinary Love
Album/Performer                          : U2
Part/Position                            : 1
Part/Total                               : 1
Track name                               : Ordinary Love
Track name/Position                      : 1
Track name/Total                         : 2
Performer                                : U2
Genre                                    : Rock
Recorded date                            : 2013
Writing library                          : LAME3.99r
ISRC                                     : GBUM71307263
Comment                                  : [url=http://www.NewAlbumReleases.net]www.NewAlbumReleases.net[/url]
Audio
Format                                   : MPEG Audio
Format version                           : Version 1
Format profile                           : Layer 3
Mode                                     : Joint stereo
Duration                                 : 3mn 39s
Bit rate mode                            : Variable
Bit rate                                 : 243 Kbps
Minimum bit rate                         : 32.0 Kbps
Channel count                            : 2 channels
Sampling rate                            : 44.1 KHz
Compression mode                         : Lossy
Stream size                              : 6.36 MiB (100%)
Writing library                          : LAME3.99r
Encoding settings                        : -m j -V 0 -q 0 -lowpass 22.1 --vbr-new -b 32
General
Complete name                            : /Users/user/Music/U2 - Ordinary Love (2013)/02 - Breathe (Mandela Version).mp3
Format                                   : MPEG Audio
File size                                : 7.41 MiB
Duration                                 : 4mn 2s
Overall bit rate mode                    : Variable
Overall bit rate                         : 257 Kbps
Album                                    : Ordinary Love
Album/Performer                          : U2
Part/Position                            : 1
Part/Total                               : 1
Track name                               : Breathe (Mandela Version)
Track name/Position                      : 2
Track name/Total                         : 2
Performer                                : U2
Genre                                    : Rock
Recorded date                            : 2013
Writing library                          : LAME3.99r
ISRC                                     : GBUM71307264
Comment                                  : [url=http://www.NewAlbumReleases.net]www.NewAlbumReleases.net[/url]
Audio
Format                                   : MPEG Audio
Format version                           : Version 1
Format profile                           : Layer 3
Mode                                     : Joint stereo
Duration                                 : 4mn 2s
Bit rate mode                            : Variable
Bit rate                                 : 257 Kbps
Minimum bit rate                         : 32.0 Kbps
Channel count                            : 2 channels
Sampling rate                            : 44.1 KHz
Compression mode                         : Lossy
Stream size                              : 7.41 MiB (100%)
Writing library                          : LAME3.99r
Encoding settings                        : -m j -V 0 -q 0 -lowpass 22.1 --vbr-new -b 32
General
Complete name                            : /Users/user/Music/U2 - Ordinary Love (2013)/Front.jpg
Format                                   : PNG
Format/Info                              : Portable Network Graphic
File size                                : 357 KiB
Image
Format                                   : PNG
Format/Info                              : Portable Network Graphic
Width                                    : 600 pixels
Height                                   : 585 pixels
Bit depth                                : 24 bits
Compression mode                         : Lossless
Stream size                              : 357 KiB (100%)
Время раздачи: 24/7 (по возможности) до 3-х первых скачавших
Other forum [Profile] [PM]
Display posts from previous:    
Reply to topic

The time now is: Today 15:21

All times are GMT + 3 Hours



You cannot post new topics in this forum
You cannot reply to topics in this forum
You cannot edit your posts in this forum
You cannot delete your posts in this forum
You cannot vote in polls in this forum
You cannot attach files in this forum
You cannot download files in this forum