Today is a free download without charge Download

Animal Planet: Русалки. Новые доказательства / Mermaids. The New Evidence (2013) HDTVRip

Reply to topic
 
Author
Message

UndegraundMen ®

Longevity: 6 years 8 months

Posts: 25145

Торрент-статистика

Post 15-Dec-2013 11:00

[Quote]

Animal Planet: Русалки. Новые доказательства / Mermaids. The New Evidence (2013) HDTVRip - Страна: США
Режиссер: Кристина Баветта
Год выпуска: 2013
Жанр: Документальный, научно-познавательный, исследование, псевдоистория, альтернативная история
Описание:
Это псевдодокументальный фильм создан с целью разбудить фантазию людей и привлечь их к изучению неисследованных зон нашей планеты на примере океана. Кроме того, фильм привлекает внимание учёных к проблеме вредного воздействия на природу (в частности, при проведении испытаний мощных сонаров, которое привело к массовой гибели китов). По изложенной в фильме версии учёные столкнулись с рядом необъяснимых фактов, говорящих о том, что в глубинах океана существует неизвестный науке вид живых существ, походящий на человека. Воссозданный облик этого существа очень напоминал мифологическое существо, которое упоминается в мифологиях древних народов мира. В русской мифологии это русалка. Сами создатели фильма в конце сообщают: "Споры о том, что именно нам удалось найти, продолжаются".
Продолжительность: 00:43:55
Качество видео: HDTVRip
Перевод: Одноголосый закадровый, профессиональный
Видеокодек: Xvid
Битрейт видео: ~2000 Кбит/сек
Размер кадра: 720x400 (16:9)
Аудиокодек: AC3 (6ch), Front: L C R, Side: L R, LFE
Битрейт аудио: 256 Кбит/сек

MediaInfo

Код:
Общее
Полное имя                               : Русалки. Новые доказательства-Mermaids. The New Evidence 2013.avi
Формат                                   : AVI
Формат/Информация                        : Audio Video Interleave
Размер файла                             : 712 Мбайт
Продолжительность                        : 43 м.
Общий поток                              : 2266 Кбит/сек
Программа кодирования                    : VirtualDubMod 1.5.10.3 | [url=http://www.virtualdub-fr.org]www.virtualdub-fr.org[/url] || (build 2550/release)
Библиотека кодирования                   : VirtualDubMod build 2550/release
Видео
Идентификатор                            : 0
Формат                                   : MPEG-4 Visual
Профиль формата                          : Advanced [email protected]
Параметр BVOP формата                    : 2
Параметр QPel формата                    : Нет
Параметр GMC формата                     : Без точки перехода
Параметр матрицы формата                 : Default (H.263)
Режим смешивания                         : Сжатый битовый поток
Идентификатор кодека                     : XVID
Идентификатор кодека/Подсказка           : XviD
Продолжительность                        : 43 м.
Битрейт                                  : 2000 Кбит/сек
Ширина                                   : 720 пикселей
Высота                                   : 400 пикселей
Соотношение сторон                       : 16:9
Частота кадров                           : 25,000 кадров/сек
Цветовое пространство                    : YUV
Субдискретизация насыщенности            : 4:2:0
Битовая глубина                          : 8 бит
Тип развёртки                            : Прогрессивная
Метод сжатия                             : С потерями
Бит/(Пиксели*Кадры)                      : 0.278
Размер потока                            : 628 Мбайт (88%)
Библиотека кодирования                   : XviD 1.2.1 (UTC 2008-12-04)
Аудио
Идентификатор                            : 1
Формат                                   : AC-3
Формат/Информация                        : Audio Coding 3
Расширение режима                        : CM (complete main)
Параметр Endianness формата              : Big
Идентификатор кодека                     : 2000
Продолжительность                        : 43 м.
Вид битрейта                             : Постоянный
Битрейт                                  : 256 Кбит/сек
Каналы                                   : 6 каналов
Расположение каналов                     : Front: L C R, Side: L R, LFE
Частота                                  : 48,0 КГц
Битовая глубина                          : 16 бит
Метод сжатия                             : С потерями
Размер потока                            : 80,4 Мбайт (11%)
Выравнивание                             : Разделение по промежуткам
Продолжительность промежутка             : 40  мс. (1,00 видеокадр)
Время предзагрузки промежутка            : 500  мс.
Скриншоты:              

Дополнительная информация:

Продолжение фильма: [url=/forum/viewtopic.php?t=723738]Русалки: Обнаружено тело[/url]
Время раздачи: 24/7. До первых 5 скачавших.
Other forum [Profile] [PM]
Display posts from previous:    
Reply to topic

The time now is: Today 20:23

All times are GMT + 3 Hours



You cannot post new topics in this forum
You cannot reply to topics in this forum
You cannot edit your posts in this forum
You cannot delete your posts in this forum
You cannot vote in polls in this forum
You cannot attach files in this forum
You cannot download files in this forum