Today is a free download without charge Download

Johnny Meyer - The Swinging Accordeon (1993) [FLAC|Lossless]

Reply to topic
 
Author
Message

UndegraundMen ®

Longevity: 6 years 9 months

Posts: 25145

Торрент-статистика

Post 30-Dec-2013 07:27

[Quote]

Johnny Meyer - The Swinging Accordeon (1993)- Год: 1993
Жанр: Bop, Swing
Продолжительность: 00:47:49
Кодек: FLAC (image+ .cue)
Битрейт: Lossless
Треклист:
01. Sweet Georgia Brown
02. What a Difference a Day Made
03. How High the Moon
04. Take the A Train
05. I Got Rhythm
06. Caravan
07. Ain't She Sweet
08. September In The Rain
09. Some Of These Days
10. All Of Me
11. Who's Sorry Now
12. Dark Eyes
13. It Had To Be You
14. I Can't Give You Anything But Love
15. On The Sunny Side Of The Street
16. Somebody Loves Me

Отчёт ЕАС:

Код:
Exact Audio Copy V0.99 prebeta 4 from 23. January 2008
EAC extraction logfile from 24. July 2009, 14:40
Johnny Meyer / The swinging Accordeon
Used drive  : Optiarc DVD RW AD-7173A   Adapter: 1  ID: 0
Read mode               : Secure
Utilize accurate stream : Yes
Defeat audio cache      : Yes
Make use of C2 pointers : No
Read offset correction                      : 48
Overread into Lead-In and Lead-Out          : No
Fill up missing offset samples with silence : Yes
Delete leading and trailing silent blocks   : No
Null samples used in CRC calculations       : No
Used interface                              : Native Win32 interface for Win NT & 2000
Used output format : Internal WAV Routines
Sample format      : 44.100 Hz; 16 Bit; Stereo
TOC of the extracted CD
     Track |   Start  |  Length  | Start sector | End sector
    ---------------------------------------------------------
        1  |  0:00.33 |  2:44.37 |        33    |    12369
        2  |  2:44.70 |  3:17.50 |     12370    |    27194
        3  |  6:02.45 |  3:08.33 |     27195    |    41327
        4  |  9:11.03 |  2:49.30 |     41328    |    54032
        5  | 12:00.33 |  2:55.55 |     54033    |    67212
        6  | 14:56.13 |  3:53.05 |     67213    |    84692
        7  | 18:49.18 |  2:32.35 |     84693    |    96127
        8  | 21:21.53 |  3:03.32 |     96128    |   109884
        9  | 24:25.10 |  2:54.40 |    109885    |   122974
       10  | 27:19.50 |  2:48.15 |    122975    |   135589
       11  | 30:07.65 |  2:53.45 |    135590    |   148609
       12  | 33:01.35 |  2:56.55 |    148610    |   161864
       13  | 35:58.15 |  2:47.13 |    161865    |   174402
       14  | 38:45.28 |  2:50.02 |    174403    |   187154
       15  | 41:35.30 |  3:34.28 |    187155    |   203232
       16  | 45:09.58 |  2:40.17 |    203233    |   215249
Range status and errors
Selected range
     Filename G:\AVAXHOME\Johnny Meyer - The swinging Accordeon\Johnny Meyer - The swinging Accordeon.wav
     Peak level 93.4 %
     Range quality 100.0 %
     Copy CRC 3D86BC5A
     Copy OK
No errors occurred
AccurateRip summary
Track  1  not present in database
Track  2  not present in database
Track  3  not present in database
Track  4  not present in database
Track  5  not present in database
Track  6  not present in database
Track  7  not present in database
Track  8  not present in database
Track  9  not present in database
Track 10  not present in database
Track 11  not present in database
Track 12  not present in database
Track 13  not present in database
Track 14  not present in database
Track 15  not present in database
Track 16  not present in database
None of the tracks are present in the AccurateRip database
End of status report

Отчёт auCDtect Task manager:

Код:
-----------------------
DON'T MODIFY THIS FILE
-----------------------
PERFORMER: auCDtect Task Manager, ver. 1.5.1RC6 build 1.5.1.7
Copyright (c) 2008-2010 y-soft. All rights reserved
http://y-soft.org
ANALYZER: auCDtect: CD records authenticity detector, version 0.8.2
Copyright (c) 2004 Oleg Berngardt. All rights reserved.
Copyright (c) 2004 Alexander Djourik. All rights reserved.
FILE: Johnny Meyer - The swinging Accordeon.flac
  Size: 328614212 Hash: 276B8DA97391B5795800D298E1D2EFC2 Accuracy: -m0
  Conclusion: CDDA 100%
  Signature: 8C81BDF0ABB0C93EC973AC68D1AEB6670AA6238A
Время раздачи: 17-24
Other forum [Profile] [PM]
Display posts from previous:    
Reply to topic

The time now is: Today 14:02

All times are GMT + 3 Hours



You cannot post new topics in this forum
You cannot reply to topics in this forum
You cannot edit your posts in this forum
You cannot delete your posts in this forum
You cannot vote in polls in this forum
You cannot attach files in this forum
You cannot download files in this forum