Today is a free download without charge Download

Dans les arbres - Canopee (2012) [FLAC|Lossless]

Reply to topic
 
Author
Message

UndegraundMen ®

Longevity: 6 years 9 months

Posts: 25145

Торрент-статистика

Post 03-Jan-2014 11:09

[Quote]

Dans les arbres - Canopée (2012)- Год: 2012
Жанр: Jazz, ECM
Продолжительность: 00:49:25
Кодек: FLAC (image+.cue, no .log)
Битрейт: Lossless
Источник: Web
Издатель (лейбл): ECM Records
Номер по каталогу: ECM 2278
Треклист:
01. La Fumée (5:15)
02. L’Émanation (3:52)
03. La Vapeur (7:11)
04. La Buée (1:58)
05. L’Éther (4:25)
06. Le Vertige (1:55)
07. L’Immatériel (9:23)
08. Les Cimes (7:56)
09. La Brume (1:20)
10. La Transparence (6:11)

Персонал:

Xavier Charles: clarinet, harmonica
Ivar Grydeland: acoustic guitar, banjo, scruti box
Christian Wallumrød: prepared piano, harmonium
Ingar Zach: gran cassa, percussion

Дополнительная информация:

ECMPlayer

Отчёт auCDtect Task manager:

Код:
-----------------------
DON'T MODIFY THIS FILE
-----------------------
PERFORMER: auCDtect Task Manager, ver. 1.6.0 RC1 build 1.6.0.1
Copyright (c) 2008-2010 y-soft. All rights reserved
http://y-soft.org
ANALYZER: auCDtect: CD records authenticity detector, version 0.8.2
Copyright (c) 2004 Oleg Berngardt. All rights reserved.
Copyright (c) 2004 Alexander Djourik. All rights reserved.
FILE: Dans les arbres - Canopee.flac
  Size: 224094634 Hash: DA5FB7EB4CFF11E9ED0556782C23B3C2 Accuracy: -m0
  Conclusion: CDDA 49%
  Signature: 2F5985E53FE4D71E742A1405DE9B280A9C4A3040

Содержимое индексной карты:

Код:
REM GENRE Jazz
REM DATE 2012
REM COMMENT ECM 2278
PERFORMER "Dans les arbres"
TITLE "Canopée"
FILE "Dans les arbres - Canopee.flac" WAVE
  TRACK 01 AUDIO
    TITLE "La Fumée"
    INDEX 01 00:00:00
  TRACK 02 AUDIO
    TITLE "L’Émanation"
    INDEX 01 05:14:61
  TRACK 03 AUDIO
    TITLE "La Vapeur"
    INDEX 01 09:06:68
  TRACK 04 AUDIO
    TITLE "La Buée"
    INDEX 01 16:17:39
  TRACK 05 AUDIO
    TITLE "L’Éther"
    INDEX 01 18:15:52
  TRACK 06 AUDIO
    TITLE "Le Vertige"
    INDEX 01 22:40:15
  TRACK 07 AUDIO
    TITLE "L’Immatériel"
    INDEX 01 24:34:72
  TRACK 08 AUDIO
    TITLE "Les Cimes"
    INDEX 01 33:57:51
  TRACK 09 AUDIO
    TITLE "La Brume"
    INDEX 01 41:53:66
  TRACK 10 AUDIO
    TITLE "La Transparence"
    INDEX 01 43:13:69

Dynamic Range Meter:

Код:
foobar2000 1.3 beta 1 / Замер динамического диапазона (DR) 1.1.1
Дата отчёта: 2013-12-31 14:41:15
--------------------------------------------------------------------------------
Анализ:   Dans les arbres / Canopée
--------------------------------------------------------------------------------
DR         Пики           RMS        Продолжительность трека
--------------------------------------------------------------------------------
DR10      -2.58 дБ   -17.65 дБ      5:15 01-La Fumée
DR11      -4.01 дБ   -19.43 дБ      3:52 02-L’Émanation
DR12      -2.30 дБ   -16.90 дБ      7:11 03-La Vapeur
DR10      -0.30 дБ   -17.35 дБ      1:58 04-La Buée
DR7       -2.27 дБ   -12.94 дБ      4:25 05-L’Éther
DR10      -2.75 дБ   -16.93 дБ      1:55 06-Le Vertige
DR11      -2.77 дБ   -18.50 дБ      9:23 07-L’Immatériel
DR9       -2.48 дБ   -16.28 дБ      7:56 08-Les Cimes
DR7       -7.97 дБ   -20.53 дБ      1:20 09-La Brume
DR13      -2.55 дБ   -22.63 дБ      6:11 10-La Transparence
--------------------------------------------------------------------------------
Количество треков:   10
Реальные значения DR:   DR10
Частота:    44100 гц
Каналов:    2
Бит на сэмпл:      16
Битрейт:    605 кбит/с
Кодек:      FLAC
================================================================================
Время раздачи: 24/7
Other forum [Profile] [PM]
Display posts from previous:    
Reply to topic

The time now is: Today 18:31

All times are GMT + 3 Hours



You cannot post new topics in this forum
You cannot reply to topics in this forum
You cannot edit your posts in this forum
You cannot delete your posts in this forum
You cannot vote in polls in this forum
You cannot attach files in this forum
You cannot download files in this forum