Today is a free download without charge Download

Gil Ventura - Golden Sax for Lovers 2CD (1998) [FLAC|Lossless]

Reply to topic
 
Author
Message

UndegraundMen ®

Longevity: 6 years 10 months

Posts: 25145

Торрент-статистика

Post 03-Jan-2014 11:34

[Quote]

Gil Ventura - Golden Sax for Lovers (1998)-
Год: 1998 | Жанр: Jazz | Продолжительность: 02:28:39
Лейбл: Gold Sound | Каталог: DCD-824
Кодек: FLAC(image+.cue + log) | Битрейт: Lossless

CD 1:

Трек лист:
01. Petite fleur (3:36)
02. Emmanuelle (3:22)
03. Histore d`O (4:03)
04. Une belle histore (4:00)
05. Feelings (4:19)
06. Love story (3:56)
07. Memory (4:39)
08. Summer love (3:26)
09. The captain of her heart (4:55)
10. Georgia on my mind (4:05)
11. Harlem nocturne (3:02)
12. I`m in the mood for love (3:38)
13. Just the way you are (4:02)
14. Over the rainbow (4:29)
15. Deep purple (2:50)
16. Bilitis (3:10)
17. September morn (3:47)
18. Je t`aime ... moi non plus (3:14)
19. Love leters in the sand (3:15)
20. Imagine (3:15)
Продолжительность – 01:15:03

Отчёт ЕАС:

Код:
Exact Audio Copy V0.99 prebeta 4 from 23. January 2008
Отчёт EAC об извлечении, выполненном 7. февраля 2009, 22:03
Gil Ventura / Golden Sax for Lovers (Vol 1)
Дисковод: Optiarc DVD RW AD-7200S   Adapter: 0  ID: 0
Режим чтения                 : Достоверность
Использование точного потока : Да
Отключение кэша аудио        : Да
Использование указателей C2  : Нет
Коррекция смещения при чтении                     : 48
Способность читать области Lead-in и Lead-out     : Нет
Заполнение пропущенных сэмплов тишиной            : Да
Удаление блоков с тишиной в начале и конце        : Нет
При вычислениях CRC использовались нулевые сэмплы : Да
Интерфейс                                         : Установленный внешний ASPI-интерфейс
Выходной формат          : Пользовательский кодировщик
Выбранный битрейт        : 1024 kBit/s
Качество                 : Высокий
Добавление ID3-тэга      : Нет
Утилита сжатия           : D:\Program Files\Exact Audio Copy\FLAC\FLAC.EXE
Дополнительные параметры : -6 -V -T "ARTIST=%a" -T "TITLE=%t" -T "ALBUM=%g" -T "DATE=%y" -T "TRACKNUMBER=%n" -T "GENRE=%m" -T "COMMENT=%e" %s -o %d
Смещение при сжатии      : 0
TOC извлечённого CD
     Трек |   Старт  | Длительность | Начальный сектор | Конечный сектор
    ---------------------------------------------------------------------
       1  |  0:00.00 |    3:36.24   |           0      |      16223
       2  |  3:36.24 |    3:21.69   |       16224      |      31367
       3  |  6:58.18 |    4:02.63   |       31368      |      49580
       4  | 11:01.06 |    4:00.07   |       49581      |      67587
       5  | 15:01.13 |    4:18.73   |       67588      |      87010
       6  | 19:20.11 |    3:55.41   |       87011      |     104676
       7  | 23:15.52 |    4:38.56   |      104677      |     125582
       8  | 27:54.33 |    3:26.24   |      125583      |     141056
       9  | 31:20.57 |    4:55.36   |      141057      |     163217
      10  | 36:16.18 |    4:05.07   |      163218      |     181599
      11  | 40:21.25 |    3:02.18   |      181600      |     195267
      12  | 43:23.43 |    3:37.57   |      195268      |     211599
      13  | 47:01.25 |    4:01.55   |      211600      |     229729
      14  | 51:03.05 |    4:29.29   |      229730      |     249933
      15  | 55:32.34 |    2:50.20   |      249934      |     262703
      16  | 58:22.54 |    3:10.25   |      262704      |     276978
      17  | 61:33.04 |    3:46.65   |      276979      |     293993
      18  | 65:19.69 |    3:14.09   |      293994      |     308552
      19  | 68:34.03 |    3:14.62   |      308553      |     323164
      20  | 71:48.65 |    3:14.31   |      323165      |     337745
Характеристики диапазона извлечения и сообщения об ошибках
Выбранный диапазон
     Имя файла E:\RIPPING\Gil Ventura - Golden Sax for Lovers\Gil Ventura - Golden Sax for Lovers (Vol 1).wav
     Пиковый уровень 90.3 %
     Качество диапазона 100.0 %
     CRC теста 152198F9
     CRC копии 152198F9
     Копирование... OK
Ошибок не произошло
AccurateRip: сводка
Трек  1  нет в базе данных
Трек  2  нет в базе данных
Трек  3  нет в базе данных
Трек  4  нет в базе данных
Трек  5  нет в базе данных
Трек  6  нет в базе данных
Трек  7  нет в базе данных
Трек  8  нет в базе данных
Трек  9  нет в базе данных
Трек 10  нет в базе данных
Трек 11  нет в базе данных
Трек 12  нет в базе данных
Трек 13  нет в базе данных
Трек 14  нет в базе данных
Трек 15  нет в базе данных
Трек 16  нет в базе данных
Трек 17  нет в базе данных
Трек 18  нет в базе данных
Трек 19  нет в базе данных
Трек 20  нет в базе данных
Ни одного трека нет в базе AccurateRip
Конец отчёта

Отчёт auCDtect:

Код:
-----------------------
DON'T MODIFY THIS FILE
-----------------------
PERFORMER: auCDtect Task Manager, ver. 1.5.1RC6 build 1.5.1.7
Copyright (c) 2008-2010 y-soft. All rights reserved
http://y-soft.org
ANALYZER: auCDtect: CD records authenticity detector, version 0.8.2
Copyright (c) 2004 Oleg Berngardt. All rights reserved.
Copyright (c) 2004 Alexander Djourik. All rights reserved.
FILE: Gil Ventura - Golden Sax for Lovers (Vol 1).flac
  Size: 403057198 Hash: E17863041F7931075DD8D46CA29AFEF1 Accuracy: -m8
  Conclusion: CDDA 100%
  Signature: 5FEFB3AEB3E20A023F6371EF74B4F53D7C8182C1

CD 2:

Трек лист:
01. New York New York (3:09)
02. The shadow of your smile (3:42)
03. Pantera Rosa (2:56)
04. I just called to say i love you (4:19)
05. The way were (3:22)
06. Medley (5:54)
07. I left my heart in San Francisco (2:42)
08. Il mio nome e` nessuno (3:02)
09. Mandy (3:30)
10. A blue shadow (2:46)
11. As time goes by (3:35)
12. Ultimo tango a parigi (3:15)
13. C`era una volta il west (4:01)
14. Moonraker (2:58)
15. Taxi driver (3:52)
16. E` nata una stella (3:07)
17. Solamente una vez (2:48)
18. Vina del mar (3:35)
19. El condor pasa (4:39)
20. I got it bad and that ain`t good (3:43)
21. I understand (2:44)
Продолжительность – 01:13:36

Отчёт ЕАС:

Код:
Exact Audio Copy V0.99 prebeta 4 from 23. January 2008
Отчёт EAC об извлечении, выполненном 7. февраля 2009, 23:01
Gil Ventura / Golden Sax for Lovers (Vol 2)
Дисковод: Optiarc DVD RW AD-7200S   Adapter: 0  ID: 0
Режим чтения                 : Достоверность
Использование точного потока : Да
Отключение кэша аудио        : Да
Использование указателей C2  : Нет
Коррекция смещения при чтении                     : 48
Способность читать области Lead-in и Lead-out     : Нет
Заполнение пропущенных сэмплов тишиной            : Да
Удаление блоков с тишиной в начале и конце        : Нет
При вычислениях CRC использовались нулевые сэмплы : Да
Интерфейс                                         : Установленный внешний ASPI-интерфейс
Выходной формат          : Пользовательский кодировщик
Выбранный битрейт        : 1024 kBit/s
Качество                 : Высокий
Добавление ID3-тэга      : Нет
Утилита сжатия           : D:\Program Files\Exact Audio Copy\FLAC\FLAC.EXE
Дополнительные параметры : -6 -V -T "ARTIST=%a" -T "TITLE=%t" -T "ALBUM=%g" -T "DATE=%y" -T "TRACKNUMBER=%n" -T "GENRE=%m" -T "COMMENT=%e" %s -o %d
Смещение при сжатии      : 0
TOC извлечённого CD
     Трек |   Старт  | Длительность | Начальный сектор | Конечный сектор
    ---------------------------------------------------------------------
       1  |  0:00.00 |    3:08.54   |           0      |      14153
       2  |  3:08.54 |    3:41.40   |       14154      |      30768
       3  |  6:50.19 |    2:55.58   |       30769      |      43951
       4  |  9:46.02 |    4:18.60   |       43952      |      63361
       5  | 14:04.62 |    3:22.22   |       63362      |      78533
       6  | 17:27.09 |    5:53.40   |       78534      |     105048
       7  | 23:20.49 |    2:41.63   |      105049      |     117186
       8  | 26:02.37 |    3:02.15   |      117187      |     130851
       9  | 29:04.52 |    3:30.02   |      130852      |     146603
      10  | 32:34.54 |    2:45.38   |      146604      |     159016
      11  | 35:20.17 |    3:34.63   |      159017      |     175129
      12  | 38:55.05 |    3:15.05   |      175130      |     189759
      13  | 42:10.10 |    4:01.17   |      189760      |     207851
      14  | 46:11.27 |    2:58.34   |      207852      |     221235
      15  | 49:09.61 |    3:51.68   |      221236      |     238628
      16  | 53:01.54 |    3:06.68   |      238629      |     252646
      17  | 56:08.47 |    2:47.48   |      252647      |     265219
      18  | 58:56.20 |    3:34.49   |      265220      |     281318
      19  | 62:30.69 |    4:38.57   |      281319      |     302225
      20  | 67:09.51 |    3:42.48   |      302226      |     318923
      21  | 70:52.24 |    2:43.45   |      318924      |     331193
Характеристики диапазона извлечения и сообщения об ошибках
Выбранный диапазон
     Имя файла E:\RIPPING\Gil Ventura - Golden Sax for Lovers\Gil Ventura - Golden Sax for Lovers (Vol 2).wav
     Пиковый уровень 83.6 %
     Качество диапазона 100.0 %
     CRC теста 38B6EE4A
     CRC копии 38B6EE4A
     Копирование... OK
Ошибок не произошло
AccurateRip: сводка
Трек  1  нет в базе данных
Трек  2  нет в базе данных
Трек  3  нет в базе данных
Трек  4  нет в базе данных
Трек  5  нет в базе данных
Трек  6  нет в базе данных
Трек  7  нет в базе данных
Трек  8  нет в базе данных
Трек  9  нет в базе данных
Трек 10  нет в базе данных
Трек 11  нет в базе данных
Трек 12  нет в базе данных
Трек 13  нет в базе данных
Трек 14  нет в базе данных
Трек 15  нет в базе данных
Трек 16  нет в базе данных
Трек 17  нет в базе данных
Трек 18  нет в базе данных
Трек 19  нет в базе данных
Трек 20  нет в базе данных
Трек 21  нет в базе данных
Ни одного трека нет в базе AccurateRip
Конец отчёта

Отчёт auCDtect:

Код:
-----------------------
DON'T MODIFY THIS FILE
-----------------------
PERFORMER: auCDtect Task Manager, ver. 1.5.1RC6 build 1.5.1.7
Copyright (c) 2008-2010 y-soft. All rights reserved
http://y-soft.org
ANALYZER: auCDtect: CD records authenticity detector, version 0.8.2
Copyright (c) 2004 Oleg Berngardt. All rights reserved.
Copyright (c) 2004 Alexander Djourik. All rights reserved.
FILE: Gil Ventura - Golden Sax for Lovers (Vol 2).flac
  Size: 413623460 Hash: 54C8117F7468CA2FEC07CE2FAA96C7F2 Accuracy: -m8
  Conclusion: CDDA 99%
  Signature: E37B6A6397838C5D609D606F7C4CDD18610B130A
Other forum [Profile] [PM]
Display posts from previous:    
Reply to topic

The time now is: Today 03:17

All times are GMT + 3 Hours



You cannot post new topics in this forum
You cannot reply to topics in this forum
You cannot edit your posts in this forum
You cannot delete your posts in this forum
You cannot vote in polls in this forum
You cannot attach files in this forum
You cannot download files in this forum