Today is a free download without charge Download

(Thrash Metal) [CD] Stygian - Planetary Destruction - 1992, FLAC (image+.cue), lossless

Reply to topic
 
Author
Message

Omen ®

Longevity: 7 years 6 months

Posts: 181087

Торрент-статистика

Post 21-Jan-2014 17:33

[Quote]

Stygian / Planetary Destruction
Жанр: Thrash Metal
Носитель: CD
Страна-производитель диска: USA
Год издания: 1992
Издатель (лейбл): Leviathan Records
Номер по каталогу: 199222
Страна: USA (Chicago, Illinois)
Аудиокодек: FLAC (*.flac)
Тип рипа: image+.cue
Битрейт аудио: lossless
Продолжительность: 00:47:00
Источник (релизер): Thunder
Наличие сканов в содержимом раздачи: да
Треклист:
01. Planetary Destruction 03:34
02. Behind Death's Door 04:06
03. Cremation 04:53
04. Catastrophic Deed 04:23
05. Needful Things 06:13
06. Fall From Grace 04:13
07. Deadly Psychic Evil 04:33
08. Enviromental Suicide 02:55
09. Preacher And The Politician 04:56
10. The Switch 07:14

Лог создания рипа

Exact Audio Copy V1.0 beta 1 from 15. November 2010
EAC extraction logfile from 11. September 2013, 17:00
Stygian / Planetary Destruction
Used drive : HL-DT-STDVDRAM GH20NS10 Adapter: 0 ID: 1
Read mode : SecureUtilize accurate stream : YesDefeat audio cache : YesMake use of C2 pointers : No
Read offset correction : 667Overread into Lead-In and Lead-Out : NoFill up missing offset samples with silence : YesDelete leading and trailing silent blocks : NoNull samples used in CRC calculations : YesUsed interface : Installed external ASPI interface
Used output format : User Defined EncoderSelected bitrate : 768 kBit/sQuality : HighAdd ID3 tag : NoCommand line compressor : C:\Program Files\Exact Audio Copy\FLAC\FLAC.EXEAdditional command line options : -6 -V -T "ARTIST=%a" -T "TITLE=%t" -T "ALBUM=%g" -T "DATE=%y" -T "TRACKNUMBER=%n" -T "GENRE=%m" -T "COMMENT=%e" %j--picture="%i"%j %s -o %d
TOC of the extracted CD
Track | Start | Length | Start sector | End sector --------------------------------------------------------- 1 | 0:00.00 | 3:34.12 | 0 | 16061 2 | 3:34.12 | 4:05.68 | 16062 | 34504 3 | 7:40.05 | 4:52.65 | 34505 | 56469 4 | 12:32.70 | 4:23.22 | 56470 | 76216 5 | 16:56.17 | 6:12.55 | 76217 | 104171 6 | 23:08.72 | 4:12.40 | 104172 | 123111 7 | 27:21.37 | 4:33.13 | 123112 | 143599 8 | 31:54.50 | 2:55.10 | 143600 | 156734 9 | 34:49.60 | 4:56.10 | 156735 | 178944 10 | 39:45.70 | 7:14.10 | 178945 | 211504
Range status and errors
Selected range
Filename H:\ 123\Stygian - Planetary destruction.wav
Peak level 100.0 % Extraction speed 1.1 X Range quality 100.0 % Copy CRC EE500A16 Copy OK
No errors occurred
AccurateRip summary
Track 1 accurately ripped (confidence 2) [2E75C888]Track 2 accurately ripped (confidence 2) [F70D39AA]Track 3 accurately ripped (confidence 2) [D20BA5C5]Track 4 accurately ripped (confidence 2) [F329B129]Track 5 accurately ripped (confidence 2) [88DED93C]Track 6 accurately ripped (confidence 2) [0CE4FB75]Track 7 accurately ripped (confidence 2) [48DBCC17]Track 8 accurately ripped (confidence 2) [49FC4EF2]Track 9 accurately ripped (confidence 2) [95073D54]Track 10 accurately ripped (confidence 2) [07DC8B8D]
All tracks accurately ripped
End of status report

Состав

James Harris -Bass
Dennis Lesh - Drums
Bob Allen - Guitars
Mike Delmore - Guitars
Gary Golwitzer - Vocals
Other forum [Profile] [PM]
Display posts from previous:    
Reply to topic

The time now is: Today 15:06

All times are GMT + 3 Hours



You cannot post new topics in this forum
You cannot reply to topics in this forum
You cannot edit your posts in this forum
You cannot delete your posts in this forum
You cannot vote in polls in this forum
You cannot attach files in this forum
You cannot download files in this forum