Today is a free download without charge Download

(Thrash Metal) [CD] Gammacide - Victims Of Science - 1989, FLAC (image+.cue), lossless

Reply to topic
 
Author
Message

Omen ®

Longevity: 7 years 6 months

Posts: 181087

Торрент-статистика

Post 05-Feb-2014 05:00

[Quote]

Gammacide
Victims Of Science
Жанр: Thrash Metal
Носитель: CD
Страна-производитель диска: Austria
Год издания: 1989
Издатель (лейбл): Wild Rags Records
Номер по каталогу: WRE/900-2
Страна: USA (Arlington, Texas)
Аудиокодек: FLAC (*.flac)
Тип рипа: image+.cue
Битрейт аудио: lossless
Продолжительность: 00:33:32
Источник (релизер): labanov
Наличие сканов в содержимом раздачи: да
Треклист:
01. Endangered Species 03:38
02. Fossilized 03:53
03. Shock Treatment 02:52
04. Victims Of Science 03:39
05. Gutter Rats 04:38
06. Walking Plague 04:11
07. Chemical Imbalance 04:14
08. Incubus 04:04
09. Observations 02:23

Лог создания рипа

Exact Audio Copy V1.0 beta 3 from 29. August 2011
EAC extraction logfile from 16. January 2014, 0:46
Gammacide / Victims Of Science
Used drive : Optiarc DVD RW AD-7543A Adapter: 0 ID: 1
Read mode : SecureUtilize accurate stream : YesDefeat audio cache : YesMake use of C2 pointers : No
Read offset correction : 48Overread into Lead-In and Lead-Out : NoFill up missing offset samples with silence : YesDelete leading and trailing silent blocks : NoNull samples used in CRC calculations : YesUsed interface : Native Win32 interface for Win NT & 2000
Used output format : Internal WAV RoutinesSample format : 44.100 Hz; 16 Bit; Stereo
TOC of the extracted CD
Track | Start | Length | Start sector | End sector --------------------------------------------------------- 1 | 0:00.00 | 3:38.06 | 0 | 16355 2 | 3:38.06 | 3:52.63 | 16356 | 33818 3 | 7:30.69 | 2:51.55 | 33819 | 46698 4 | 10:22.49 | 3:38.68 | 46699 | 63116 5 | 14:01.42 | 4:38.13 | 63117 | 83979 6 | 18:39.55 | 4:10.72 | 83980 | 102801 7 | 22:50.52 | 4:13.63 | 102802 | 121839 8 | 27:04.40 | 4:04.27 | 121840 | 140166 9 | 31:08.67 | 2:23.23 | 140167 | 150914
Range status and errors
Selected range
Filename D:\игры\Gammacide - Victims Of Science.wav
Peak level 99.9 % Extraction speed 1.8 X Range quality 100.0 % Copy CRC 52725297 Copy OK
No errors occurred
End of status report

Состав

Rick Perry - Guitar
Scott Shelby - Guitar
Varnam Ponville - Vocals
Eric Roy (R.I.P. 2001) - Bass
Brian Pho - Bass
Jamey Milford - Drums
Other forum [Profile] [PM]
Similar theme
Forum Topic Author Torrent Replies Last Post
./templates/default/images/folder_dl.gif Metal (thrash metal) Nemesis - Nemesis - 1997, FLAC (image+.cue), lossless Omen
1 | 0

0 | 760

1

2013-08-24 21:50
Omen Latest
./templates/default/images/folder_dl.gif Metal (Thrash Metal) Kat - Metal And Hell - 1985 (2003 Re-Issue), FLAC (image+.cue), lossless Omen
1 | 0

0 | 961

3

2013-10-08 00:55
Omen Latest
./templates/default/images/folder_dl.gif Metal (Thrash Metal) [CD] Stygian - Planetary Destruction - 1992, FLAC (image+.cue), lossless Omen
1 | 0

0 | 2105

12

2014-01-21 17:33
Omen Latest
./templates/default/images/folder_dl.gif Metal (Thrash Metal) [CD] Panacea - Is It a Human? [1MF, CD 377003.1.2.26; Germany, 1993] - 1992, FLAC (image+.cue), lossless Kaustikk
1 | 0

0 | 2463

0

2017-12-11 04:27
Kaustikk Latest
./templates/default/images/folder_dl.gif Metal (Thrash Metal) [CD] Accu§er (Accuser) - Double Talk [Reissue 1997, Remastered] - 1991, FLA - 1991, FLAC (image + .cue), lossless Kaustikk
1 | 0

1 | 3791

0

2018-02-05 20:55
Kaustikk Latest
./templates/default/images/folder_dl.gif Metal (Thrash Metal) [CD] Nasty Savage - Indulgence and Abstract Reality [Reissue 2004] - 1994, FLAC (image + .cue), lossless Kaustikk
1 | 0

0 | 405

0

2019-12-21 14:47
Kaustikk Latest
Display posts from previous:    
Reply to topic

The time now is: Today 02:42

All times are GMT + 3 Hours



You cannot post new topics in this forum
You cannot reply to topics in this forum
You cannot edit your posts in this forum
You cannot delete your posts in this forum
You cannot vote in polls in this forum
You cannot attach files in this forum
You cannot download files in this forum