Today is a free download without charge Download

Wishbone Ash - 48 CD (1970 - 2011)<Rock>

Reply to topic
 
Author
Message

Omen ®

Longevity: 6 years 7 months

Posts: 181101

Торрент-статистика

Post 22-Jan-2013 19:00

[Quote]

-Wishbone Ash - 48 CD (1970 - 2011)-
Страна: UK
Год: 1970 - 2011
Жанр: Rock
Кодек: FLAC
Битрейт: Lossless
Продолжительность: 20:46:58
Wishbone Ash (читается как Уишбоун Эш) — британская рок-группа стилей хард-рок,прогрессивный рок, арт-рок, созданная бас-гитаристом Мартином Тёрнером, гитаристом Гленом Тёрнером и барабанщиком Стивом Аптоном в 1969 году.

1970 - Wishbone Ash (Remastered 2000 VDC-031&#41;

Продолжительность: 00:42:24
Треклист:
01. Blind Eye (3:45)
02. Lady Whiskey (6:13)
03. Errors Of My Way (6:57)
04. Queen Of Torture (3:23)
05. Handy (11:38)
06. Phoenix (10:27)

Лог EAC

Код:
Отчёт EAC об извлечении, выполненном 15. сентября 2008, 21:07 для диска:
Wishbone Ash / Wishbone Ash
Дисковод: HL-DT-STDVDRAM GSA-H62N   Adapter: 2  ID: 2
Режим чтения: Достоверный (C2: нет, Точный поток: да, Отключение кэша: да)
Коррекция смещения при чтении: 667
Способность читать области Lead-in и Lead-out : Нет
Выходной формат: Внутренние WAV-операции
                     44.100 Гц; 16 бит; стерео
Другие параметры:
    Заполнение пропущенных сэмплов тишиной : Да
    Удаление блоков с тишиной в начале и конце : Нет
    Установленный внешний ASPI-интерфейс
Характеристики диапазона извлечения и сообщения об ошибках
Выбранный диапазон
     Имя файла G:\WA\Wishbone Ash-70\Wishbone Ash - Wishbone Ash.wav
     Пиковый уровень 100.0 %
     Качество диапазона 99.9 %
     CRC 31B73578
     Копирование... OK
Ошибок не произошло
Конец отчёта

Folder.auCDtect

Код:
-----------------------
DON'T MODIFY THIS FILE
-----------------------
PERFORMER: auCDtect Task Manager, ver. 1.5.1RC4 build 1.5.1.5
Copyright (c) 2008-2010 y-soft. All rights reserved
http://y-soft.org
ANALYZER: auCDtect: CD records authenticity detector, version 0.8.2
Copyright (c) 2004 Oleg Berngardt. All rights reserved.
Copyright (c) 2004 Alexander Djourik. All rights reserved.
FILE: Wishbone Ash - Wishbone Ash.flac
  Size: 290018814 Hash: 6DD93DF8A80FB3992DC111E478D0AEC0 Accuracy: -m0
  Conclusion: CDDA 100%
  Signature: B4E28B6F90FCDF8F1C601810E419D3B3F9660319

1971 - Pilgrimage (1991 USA MCA Rec. MCAD 10233&#41;

Продолжительность: 00:45:14
Треклист:
01. Vas Dis (4:46)
02. The Pilgrim (8:34)
03. Jail Bait (4:46)
04. Alone (2:24)
05. Lullaby (3:04)
06. Valediction (6:21)
07. Where Were You Tomorrow (10:26)
08. Jail Bait (4:55)

Лог EAC

Код:
Exact Audio Copy V0.99 prebeta 2 from 28. July 2007
EAC extraction logfile from 6. January 2008, 9:56
Wishbone Ash / Pilgrimage
Used drive  : MATSHITADVD-RAM LF-D521   Adapter: 2  ID: 0
Read mode               : Secure
Utilize accurate stream : Yes
Defeat audio cache      : Yes
Make use of C2 pointers : No
Read offset correction                      : 102
Overread into Lead-In and Lead-Out          : No
Fill up missing offset samples with silence : Yes
Delete leading and trailing silent blocks   : No
Null samples used in CRC calculations       : No
Used interface                              : Native Win32 interface for Win NT & 2000
Used output format              : User Defined Encoder
Selected bitrate                : 896 kBit/s
Quality                         : High
Add ID3 tag                     : No
Command line compressor         : C:\Program Files\Exact Audio Copy\FLAC\FLAC.EXE
Additional command line options : -6 -V -T "ARTIST=%a" -T "TITLE=%t" -T "ALBUM=%g" -T "DATE=%y" -T "TRACKNUMBER=%n" -T "GENRE=%m" -T "COMMENT=%e" %s -o %d
TOC of the extracted CD
     Track |   Start  |  Length  | Start sector | End sector
    ---------------------------------------------------------
        1  |  0:00.00 |  4:45.60 |         0    |    21434
        2  |  4:45.60 |  8:33.65 |     21435    |    59974
        3  | 13:19.50 |  4:45.47 |     59975    |    81396
        4  | 18:05.22 |  2:23.48 |     81397    |    92169
        5  | 20:28.70 |  3:03.55 |     92170    |   105949
        6  | 23:32.50 |  6:20.45 |    105950    |   134494
        7  | 29:53.20 | 10:25.72 |    134495    |   181441
        8  | 40:19.17 |  4:54.50 |    181442    |   203541
Range status and errors
Selected range
     Filename D:\Dokumenty\Azureus Downloads\Wishbone Ash - Pilgrimage 1971\Wishbone Ash - Pilgrimage.wav
     Peak level 99.6 %
     Range quality 100.0 %
     Copy CRC B2EC6DAB
     Copy OK
No errors occurred
AccurateRip summary
Track  1  not present in database
Track  2  not present in database
Track  3  not present in database
Track  4  not present in database
Track  5  not present in database
Track  6  not present in database
Track  7  not present in database
Track  8  not present in database
None of the tracks are present in the AccurateRip database
End of status report

Folder.auCDtect

Код:
-----------------------
DON'T MODIFY THIS FILE
-----------------------
PERFORMER: auCDtect Task Manager, ver. 1.5.1RC4 build 1.5.1.5
Copyright (c) 2008-2010 y-soft. All rights reserved
http://y-soft.org
ANALYZER: auCDtect: CD records authenticity detector, version 0.8.2
Copyright (c) 2004 Oleg Berngardt. All rights reserved.
Copyright (c) 2004 Alexander Djourik. All rights reserved.
FILE: Wishbone Ash - Pilgrimage.flac
  Size: 267227279 Hash: 5066019B6F58E49E3CFBEE3019B66981 Accuracy: -m0
  Conclusion: CDDA 100%
  Signature: BBA6D9556C94D08DFE173AA040F6ED8A3A48D908

1972 - Argus (Remastered &amp; Revisited 2002 USA MCA DECCA 088 112 816-2&#41;

Продолжительность: 01:17:06
Треклист:
01. Time Was (9:42)
02. Sometime World (6:52)
03. Blowin' Free (5:19)
04. The King Will Come (7:05)
05. Leaf And Stream (4:06)
06. Warrior (5:52)
07. Throw Down The Sword (5:55)
08. Jail Bait (Live from Memphis 21-08-1972) (4:57)
09. The Pilgrim (Live from Memphis 21-08-1972) (10:10)
10. Phoenix (Live from Memphis 21-08-1972) (17:06)

Лог EAC

Код:
EAC extraction logfile from 29. September 2005, 18:49 for CD
Wishbone Ash / Argus - Remastered & Revisited
Used drive  : BENQ    DVD DD DW1620   Adapter: 1  ID: 0
Read mode   : Secure with NO C2, accurate stream, disable cache
Read offset correction : 618
Overread into Lead-In and Lead-Out : No
Used output format : Internal WAV Routines
                     44.100 Hz; 16 Bit; Stereo
Other options      :
    Fill up missing offset samples with silence : Yes
    Delete leading and trailing silent blocks : No
    Installed external ASPI interface
Range status and errors
Selected range
     Filename D:\flogger77\CDImage.wav
     Peak level 100.0 %
     Range quality 100.0 %
     CRC 8825527B
     Copy OK
No errors occured
End of status report

Folder.auCDtect

Код:
-----------------------
DON'T MODIFY THIS FILE
-----------------------
PERFORMER: auCDtect Task Manager, ver. 1.5.1RC4 build 1.5.1.5
Copyright (c) 2008-2010 y-soft. All rights reserved
http://y-soft.org
ANALYZER: auCDtect: CD records authenticity detector, version 0.8.2
Copyright (c) 2004 Oleg Berngardt. All rights reserved.
Copyright (c) 2004 Alexander Djourik. All rights reserved.
FILE: Wishbone Ash - Argus.flac
  Size: 535991709 Hash: 8228882D8A056CDE0FA0E3C0B2DD71E7 Accuracy: -m0
  Conclusion: CDDA 100%
  Signature: 0C1CC299A7014CE671DB00292F83866F3FD7BAF6

1973 - Wishbone Four (1973 Germany MCA Rec. MCAD 10350&#41;

Продолжительность: 00:43:37
Треклист:
01. So Many Things To Say (5:06)
02. Ballad Of The Beacon (5:05)
03. No Easy Road (3:49)
04. Everybody Needs A Friend (8:25)
05. Doctor (5:53)
06. Sorrel (5:04)
07. Sing Out The Song (4:25)
08. Rock 'N Roll Widow (5:51)

Лог EAC

Код:
EAC extraction logfile from 5. January 2005, 9:15 for CD
Wishbone Ash / Wishbone Four
Used drive  : HL-DT-STCD-RW GCE-8400B   Adapter: 1  ID: 0
Read mode   : Secure with NO C2, accurate stream, disable cache
Combined read/write offset correction : 0
Overread into Lead-In and Lead-Out : No
Used output format : Internal WAV Routines
                     44.100 Hz; 16 Bit; Stereo
Other options      :
    Fill up missing offset samples with silence : Yes
    Delete leading and trailing silent blocks : No
    Installed external ASPI interface
Range status and errors
Selected range
     Filename D:\flogger77\CDImage.wav
     Peak level 94.8 %
     Range quality 99.9 %
     CRC 4051DAD5
     Copy OK
No errors occured
End of status report

Folder.auCDtect

Код:
-----------------------
DON'T MODIFY THIS FILE
-----------------------
PERFORMER: auCDtect Task Manager, ver. 1.5.1RC4 build 1.5.1.5
Copyright (c) 2008-2010 y-soft. All rights reserved
http://y-soft.org
ANALYZER: auCDtect: CD records authenticity detector, version 0.8.2
Copyright (c) 2004 Oleg Berngardt. All rights reserved.
Copyright (c) 2004 Alexander Djourik. All rights reserved.
FILE: Wishbone Ash - Wishbone Four.flac
  Size: 256472341 Hash: AE5D6B866B0EBDECDD297B37B62A617D Accuracy: -m0
  Conclusion: CDDA 100%
  Signature: 40DF9B2C9274CDB46276E8789258FDE317B7F7F0

1974 - There's the Rub (1994 USA MCA Rec. MCAD 10448&#41;

Продолжительность: 00:39:00
Треклист:
01. Silver Shoes (6:38)
02. Don't Come Back (5:11)
03. Persephone (7:00)
04. Hometown (4:48)
05. Lady Jay (5:57)
06. F.U.B.B. (9:26)

Лог EAC

Код:
Exact Audio Copy V0.99 prebeta 4 from 23. January 2008
Отчёт EAC об извлечении, выполненном 15. марта 2012, 21:21
Wishbone Ash / There's the Rub
Дисковод: _NEC    DVD_RW ND-3540A   Adapter: 0  ID: 1
Режим чтения                 : Достоверность
Использование точного потока : Да
Отключение кэша аудио        : Да
Использование указателей C2  : Нет
Коррекция смещения при чтении                     : 48
Способность читать области Lead-in и Lead-out     : Нет
Заполнение пропущенных сэмплов тишиной            : Да
Удаление блоков с тишиной в начале и конце        : Нет
При вычислениях CRC использовались нулевые сэмплы : Да
Интерфейс                                         : Встроенный Win32-интерфейс для Win NT/2000
Выходной формат : Внутренние WAV-операции
Формат сэмплов  : 44.100 Гц; 16 бит; стерео
TOC извлечённого CD
     Трек |   Старт  | Длительность | Начальный сектор | Конечный сектор
    ---------------------------------------------------------------------
       1  |  0:00.00 |    6:38.15   |           0      |      29864
       2  |  6:38.15 |    5:10.67   |       29865      |      53181
       3  | 11:49.07 |    6:59.58   |       53182      |      84664
       4  | 18:48.65 |    4:48.17   |       84665      |     106281
       5  | 23:37.07 |    5:56.68   |      106282      |     133049
       6  | 29:34.00 |    9:26.27   |      133050      |     175526
Характеристики диапазона извлечения и сообщения об ошибках
Выбранный диапазон
     Имя файла J:\Classic Rock\Wishbone Ash\Wishbone Ash - 1974 - There's the Rub (MCA MCAD 10448)\Wishbone Ash - There's the Rub.wav
     Пиковый уровень 93.6 %
     Качество диапазона 100.0 %
     CRC теста 22921EA9
     CRC копии 22921EA9
     Копирование... OK
Ошибок не произошло
AccurateRip: сводка
Трек  1  точное извлечение (доверие 12)  [F618919C]
Трек  2  точное извлечение (доверие 12)  [66CF7947]
Трек  3  точное извлечение (доверие 12)  [E54D588D]
Трек  4  точное извлечение (доверие 12)  [14DE7B80]
Трек  5  точное извлечение (доверие 12)  [E4998088]
Трек  6  точное извлечение (доверие 12)  [339C63F9]
Все треки извлечены точно
Конец отчёта

Folder.auCDtect

Код:
-----------------------
DON'T MODIFY THIS FILE
-----------------------
PERFORMER: auCDtect Task Manager, ver. 1.5.1RC4 build 1.5.1.5
Copyright (c) 2008-2010 y-soft. All rights reserved
http://y-soft.org
ANALYZER: auCDtect: CD records authenticity detector, version 0.8.2
Copyright (c) 2004 Oleg Berngardt. All rights reserved.
Copyright (c) 2004 Alexander Djourik. All rights reserved.
FILE: Wishbone Ash - There's the Rub.flac
  Size: 220428374 Hash: AB2B4672A03F9E95108CAC9E1E8E07C6 Accuracy: -m0
  Conclusion: CDDA 100%
  Signature: CB05AE0417D0C60E859B4BE2B00DEF16B6555AE1

1976 - Locked In

Продолжительность: 00:37:01
Треклист:
01. Rest In Peace (6:45)
02. No Water In The Well (3:49)
03. Moonshine (3:35)
04. She Was My Best Friend (3:55)
05. It Started In Heaven (3:19)
06. Half Pasy Lovin' (5:32)
07. Trust In You (5:07)
08. Say Goodbye (5:00)

Лог EAC

Код:
Отчёт EAC об извлечении, выполненном 15. сентября 2008, 22:02 для диска:
Wishbone Ash / Locked In
Дисковод: HL-DT-STDVDRAM GSA-H62N   Adapter: 2  ID: 2
Режим чтения: Достоверный (C2: нет, Точный поток: да, Отключение кэша: да)
Коррекция смещения при чтении: 667
Способность читать области Lead-in и Lead-out : Нет
Выходной формат: C:\Program Files\FLAC\flac.exe   (Пользовательский кодировщик)
                     320 kBit/s
                     Дополнительные параметры: -6 -V -T "artist=%a" -T "title=%t" -T "album=%g" -T "date=%y" -T "tracknumber=%n" -T "genre=%m" -T "comment=EAC FLAC -6" %s
Другие параметры:
    Заполнение пропущенных сэмплов тишиной : Да
    Удаление блоков с тишиной в начале и конце : Нет
    Установленный внешний ASPI-интерфейс
Характеристики диапазона извлечения и сообщения об ошибках
Выбранный диапазон
     Имя файла G:\WA\Locked In-76\Wishbone Ash - Locked In.wav
     Пиковый уровень 99.2 %
     Качество диапазона 100.0 %
     CRC FAA99313
     Копирование... OK
Ошибок не произошло
Конец отчёта

Folder.auCDtect

Код:
-----------------------
DON'T MODIFY THIS FILE
-----------------------
PERFORMER: auCDtect Task Manager, ver. 1.5.1RC4 build 1.5.1.5
Copyright (c) 2008-2010 y-soft. All rights reserved
http://y-soft.org
ANALYZER: auCDtect: CD records authenticity detector, version 0.8.2
Copyright (c) 2004 Oleg Berngardt. All rights reserved.
Copyright (c) 2004 Alexander Djourik. All rights reserved.
FILE: Wishbone Ash - Locked In.flac
  Size: 252185899 Hash: EDE10D6379FE3EB7551CB1646B9085CF Accuracy: -m0
  Conclusion: CDDA 100%
  Signature: B0C3C5C96F28060072A724FE683886DB7BDE9C61

1976 - New England (1976 Germany MCA Rec. MCAD 2238&#41;

Продолжительность: 00:36:41
Треклист:
01. Mother of Pearl (4:23)
02. (In All of My Dreams) You Rescue Me (5:55)
03. Runaway (3:20)
04. Lorelei (5:24)
05. Outward Bound (4:52)
06. Prelude (1:02)
07. When You Know Love (5:41)
08. Lonely Island (4:28)
09. Candle-Light (1:37)

Лог EAC

Код:
Exact Audio Copy V0.99 prebeta 4 from 23. January 2008
EAC extraction logfile from 10. May 2009, 13:56
Wishbone Ash / New England
Used drive  : _NEC    DVD_RW ND-3520A   Adapter: 2  ID: 0
Read mode               : Secure
Utilize accurate stream : Yes
Defeat audio cache      : Yes
Make use of C2 pointers : No
Read offset correction                      : 48
Overread into Lead-In and Lead-Out          : No
Fill up missing offset samples with silence : Yes
Delete leading and trailing silent blocks   : No
Null samples used in CRC calculations       : Yes
Used interface                              : Native Win32 interface for Win NT & 2000
Gap handling                                : Appended to previous track
Used output format              : User Defined Encoder
Selected bitrate                : 128 kBit/s
Quality                         : High
Add ID3 tag                     : No
Command line compressor         : C:\Program Files\Exact Audio Copy\Flac\flac.exe
Additional command line options : -V -8 -T "artist=%a" -T "title=%t" -T "album=%g" -T "date=%y" -T "tracknumber=%n" -T "genre=%m" %s
TOC of the extracted CD
     Track |   Start  |  Length  | Start sector | End sector
    ---------------------------------------------------------
        1  |  0:00.00 |  4:22.73 |         0    |    19722
        2  |  4:22.73 |  5:55.03 |     19723    |    46350
        3  | 10:18.01 |  3:19.64 |     46351    |    61339
        4  | 13:37.65 |  5:23.72 |     61340    |    85636
        5  | 19:01.62 |  4:51.48 |     85637    |   107509
        6  | 23:53.35 |  1:02.25 |    107510    |   112184
        7  | 24:55.60 |  5:40.64 |    112185    |   137748
        8  | 30:36.49 |  4:27.67 |    137749    |   157840
        9  | 35:04.41 |  1:36.53 |    157841    |   165093
Track  1
     Filename F:\Flac\Wishbone Ash - New England 1976\Wishbone Ash - 1976 - New England\01 - Mother of Pearl.wav
     Pre-gap length  0:00:02.00
     Peak level 94.6 %
     Track quality 99.9 %
     Test CRC 29E3A299
     Copy CRC 29E3A299
     Track not present in AccurateRip database
     Copy OK
Track  2
     Filename F:\Flac\Wishbone Ash - New England 1976\Wishbone Ash - 1976 - New England\02 - (In All of My Dreams) You Rescue Me.wav
     Pre-gap length  0:00:02.00
     Peak level 83.0 %
     Track quality 100.0 %
     Test CRC 8F622C91
     Copy CRC 8F622C91
     Track not present in AccurateRip database
     Copy OK
Track  3
     Filename F:\Flac\Wishbone Ash - New England 1976\Wishbone Ash - 1976 - New England\03 - Runaway.wav
     Pre-gap length  0:00:02.00
     Peak level 97.4 %
     Track quality 100.0 %
     Test CRC 7723C302
     Copy CRC 7723C302
     Track not present in AccurateRip database
     Copy OK
Track  4
     Filename F:\Flac\Wishbone Ash - New England 1976\Wishbone Ash - 1976 - New England\04 - Lorelei.wav
     Pre-gap length  0:00:02.00
     Peak level 86.7 %
     Track quality 100.0 %
     Test CRC 8C536D52
     Copy CRC 8C536D52
     Track not present in AccurateRip database
     Copy OK
Track  5
     Filename F:\Flac\Wishbone Ash - New England 1976\Wishbone Ash - 1976 - New England\05 - Outward Bound.wav
     Pre-gap length  0:00:02.00
     Peak level 91.1 %
     Track quality 100.0 %
     Test CRC 822345A6
     Copy CRC 822345A6
     Track not present in AccurateRip database
     Copy OK
Track  6
     Filename F:\Flac\Wishbone Ash - New England 1976\Wishbone Ash - 1976 - New England\06 - Prelude.wav
     Pre-gap length  0:00:02.00
     Peak level 84.5 %
     Track quality 100.0 %
     Test CRC 42F20B4E
     Copy CRC 42F20B4E
     Track not present in AccurateRip database
     Copy OK
Track  7
     Filename F:\Flac\Wishbone Ash - New England 1976\Wishbone Ash - 1976 - New England\07 - When You Know Love.wav
     Pre-gap length  0:00:02.00
     Peak level 82.6 %
     Track quality 100.0 %
     Test CRC 448E7122
     Copy CRC 448E7122
     Track not present in AccurateRip database
     Copy OK
Track  8
     Filename F:\Flac\Wishbone Ash - New England 1976\Wishbone Ash - 1976 - New England\08 - Lonely Island.wav
     Pre-gap length  0:00:02.00
     Peak level 59.0 %
     Track quality 100.0 %
     Test CRC 9E0E19FB
     Copy CRC 9E0E19FB
     Track not present in AccurateRip database
     Copy OK
Track  9
     Filename F:\Flac\Wishbone Ash - New England 1976\Wishbone Ash - 1976 - New England\09 - Candle-Light.wav
     Pre-gap length  0:00:02.00
     Peak level 40.6 %
     Track quality 100.0 %
     Test CRC CF577494
     Copy CRC CF577494
     Track not present in AccurateRip database
     Copy OK
None of the tracks are present in the AccurateRip database
No errors occurred
End of status report

Индексная карта

Код:
REM ACCURATERIPID 000da1f6-0062825d-70089909
REM COMMENT "CUETools generated dummy CUE sheet"
REM DATE 1976
PERFORMER "Wishbone Ash"
TITLE "New England"
FILE "01 - Mother of Pearl.flac" WAVE
  TRACK 01 AUDIO
    TITLE "Mother of Pearl"
    PERFORMER "Wishbone Ash"
    INDEX 01 00:00:00
  TRACK 02 AUDIO
    TITLE "(In All of My Dreams) You Rescue Me"
    PERFORMER "Wishbone Ash"
    INDEX 00 04:20:73
FILE "02 - (In All of My Dreams) You Rescue Me.flac" WAVE
    INDEX 01 00:00:00
  TRACK 03 AUDIO
    TITLE "Runaway"
    PERFORMER "Wishbone Ash"
    INDEX 00 05:53:03
FILE "03 - Runaway.flac" WAVE
    INDEX 01 00:00:00
  TRACK 04 AUDIO
    TITLE "Lorelei"
    PERFORMER "Wishbone Ash"
    INDEX 00 03:17:64
FILE "04 - Lorelei.flac" WAVE
    INDEX 01 00:00:00
  TRACK 05 AUDIO
    TITLE "Outward Bound"
    PERFORMER "Wishbone Ash"
    INDEX 00 05:21:72
FILE "05 - Outward Bound.flac" WAVE
    INDEX 01 00:00:00
  TRACK 06 AUDIO
    TITLE "Prelude"
    PERFORMER "Wishbone Ash"
    INDEX 00 04:49:48
FILE "06 - Prelude.flac" WAVE
    INDEX 01 00:00:00
  TRACK 07 AUDIO
    TITLE "When You Know Love"
    PERFORMER "Wishbone Ash"
    INDEX 00 01:00:25
FILE "07 - When You Know Love.flac" WAVE
    INDEX 01 00:00:00
  TRACK 08 AUDIO
    TITLE "Lonely Island"
    PERFORMER "Wishbone Ash"
    INDEX 00 05:38:64
FILE "08 - Lonely Island.flac" WAVE
    INDEX 01 00:00:00
  TRACK 09 AUDIO
    TITLE "Candle-Light"
    PERFORMER "Wishbone Ash"
    INDEX 00 04:25:67
FILE "09 - Candle-Light.flac" WAVE
    INDEX 01 00:00:00

Folder.auCDtect

Код:
-----------------------
DON'T MODIFY THIS FILE
-----------------------
PERFORMER: auCDtect Task Manager, ver. 1.5.1RC4 build 1.5.1.5
Copyright (c) 2008-2010 y-soft. All rights reserved
http://y-soft.org
ANALYZER: auCDtect: CD records authenticity detector, version 0.8.2
Copyright (c) 2004 Oleg Berngardt. All rights reserved.
Copyright (c) 2004 Alexander Djourik. All rights reserved.
FILE: 09 - Candle-Light.flac
  Size: 8105625 Hash: A8C6C054B140B2B2C4D952FAAA68B762 Accuracy: -m0
  Conclusion: CDDA 100%
  Signature: A0C5C2B156997B377C35E0E0B9FBA91C2647A74A
FILE: 08 - Lonely Island.flac
  Size: 24357832 Hash: E936614B659BBE0286134BF48B7F4697 Accuracy: -m0
  Conclusion: CDDA 99%
  Signature: E3DFFC033B6860E4788B775E0DEB072A7FDB94F1
FILE: 07 - When You Know Love.flac
  Size: 37496095 Hash: A823FC576E6F32481D9271CB0079090F Accuracy: -m0
  Conclusion: CDDA 99%
  Signature: DE1A046B3E133C47CFD1E6868904569722741A5F
FILE: 06 - Prelude.flac
  Size: 6079502 Hash: 76FB65605209A857369F2962F8892FF4 Accuracy: -m0
  Conclusion: CDDA 99%
  Signature: EB0E083E8AA2A7D275848BB09970CC1B5022A5CE
FILE: 05 - Outward Bound.flac
  Size: 33421570 Hash: 352EB673D7280F29BE2A67EFF87D8E13 Accuracy: -m0
  Conclusion: CDDA 100%
  Signature: 38BA1C5CF4FAEA37210FB9A0AE7F6A71DC07A4C6
FILE: 04 - Lorelei.flac
  Size: 37642027 Hash: 2D8567AE76D88AD8D0F6D5BCF6FF348A Accuracy: -m0
  Conclusion: CDDA 100%
  Signature: A8248C0CFBE22B33D76DCD07F8E4DB59F593133B
FILE: 03 - Runaway.flac
  Size: 23605841 Hash: 6BC24C689ED7790CF1D53F99E3CE84CF Accuracy: -m0
  Conclusion: CDDA 100%
  Signature: 0477F25EC047AE50C8444923C1E7B3888D508B25
FILE: 02 - (In All of My Dreams) You Rescue Me.flac
  Size: 35495099 Hash: 23CE5ECF6C3DEECAE6200027621CD6FC Accuracy: -m0
  Conclusion: CDDA 100%
  Signature: 3CE0D9FC94040C3072DDDF38E614FC19A47F2AC5
FILE: 01 - Mother of Pearl.flac
  Size: 30069059 Hash: 1464082B98B68D2B2C7EFD0A23722099 Accuracy: -m0
  Conclusion: CDDA 100%
  Signature: 860C23660F785F1C40D3CF085EF6406CF302CEDC

1977 - Front Page News (MCA Rec.UICY-9087&#41;

Продолжительность: 00:42:39
Треклист:
01. Front Page News (5:11)
02. Midnight Dancer (4:31)
03. Goodbye Baby Hello Friend (3:52)
04. Surface To Air (4:53)
05. 714 (3:23)
06. Come In From The Rain (4:45)
07. Right Or Wrong (2:53)
08. Heart Beat (4:22)
09. The Day I Found Your Love (4:31)
10. Diamond Jack (4:18)

Лог EAC

Код:
Отчёт EAC об извлечении, выполненном 19. апреля 2007, 17:44 для диска:
Wishbone Ash / Front Page News
Дисковод: ASUS    DVD-E616P2   Adapter: 1  ID: 0
Режим чтения: Достоверный (C2: нет, Точный поток: да, Отключение кэша: да)
Коррекция смещения при чтении: 738
Способность читать области Lead-in и Lead-out : Нет
Выходной формат: Внутренние WAV-операции
                     44.100 Гц; 16 бит; стерео
Другие параметры:
    Заполнение пропущенных сэмплов тишиной : Да
    Удаление блоков с тишиной в начале и конце : Нет
    Установленный внешний ASPI-интерфейс
Характеристики диапазона извлечения и сообщения об ошибках
Выбранный диапазон
     Имя файла D:\Wishbone_Ash_Front_Page_News\Wishbone Ash - Front Page News.wav
     Пиковый уровень 100.0 %
     Качество диапазона 100.0 %
     CRC 145F097E
     Копирование... OK
Ошибок не произошло
Конец отчёта

Folder.auCDtect

Код:
-----------------------
DON'T MODIFY THIS FILE
-----------------------
PERFORMER: auCDtect Task Manager, ver. 1.5.1RC4 build 1.5.1.5
Copyright (c) 2008-2010 y-soft. All rights reserved
http://y-soft.org
ANALYZER: auCDtect: CD records authenticity detector, version 0.8.2
Copyright (c) 2004 Oleg Berngardt. All rights reserved.
Copyright (c) 2004 Alexander Djourik. All rights reserved.
FILE: Wishbone Ash - Front Page News.flac
  Size: 260329662 Hash: 1E553EDBE34DB146A031DCF68FA8025A Accuracy: -m0
  Conclusion: CDDA 100%
  Signature: FAA348BDD890B3FC8257BB939F942A52A2B44D64

1978 - No Smoke Without Fire (Japan UICY-9088&#41;

Продолжительность: 00:41:08
Треклист:
01. You See Red (6:05)
02. Baby the Angels Are Here (4:48)
03. Ships in the Sky (3:02)
04. Stand and Deliver (7:27)
05. Anger in Harmony (5:04)
06. Like a Child (5:00)
07. The Way of the World, Pt. 1 (4:10)
08. Way of the World, Pt. 2 (5:31)

Лог EAC

Код:
Отчёт EAC об извлечении, выполненном 19. апреля 2007, 18:04 для диска:
Wishbone Ash / No Smoke Without Fire
Дисковод: ASUS    DVD-E616P2   Adapter: 1  ID: 0
Режим чтения: Достоверный (C2: нет, Точный поток: да, Отключение кэша: да)
Коррекция смещения при чтении: 738
Способность читать области Lead-in и Lead-out : Нет
Выходной формат: Внутренние WAV-операции
                     44.100 Гц; 16 бит; стерео
Другие параметры:
    Заполнение пропущенных сэмплов тишиной : Да
    Удаление блоков с тишиной в начале и конце : Нет
    Установленный внешний ASPI-интерфейс
Характеристики диапазона извлечения и сообщения об ошибках
Выбранный диапазон
     Имя файла D:\Wishbone_Ash_No_Smoke_Whithout_Fire\Wishbone Ash - No Smoke Without Fire.wav
     Пиковый уровень 100.0 %
     Качество диапазона 100.0 %
     CRC 97709D80
     Копирование... OK
Ошибок не произошло
Конец отчёта

Folder.auCDtect

Код:
-----------------------
DON'T MODIFY THIS FILE
-----------------------
PERFORMER: auCDtect Task Manager, ver. 1.5.1RC4 build 1.5.1.5
Copyright (c) 2008-2010 y-soft. All rights reserved
http://y-soft.org
ANALYZER: auCDtect: CD records authenticity detector, version 0.8.2
Copyright (c) 2004 Oleg Berngardt. All rights reserved.
Copyright (c) 2004 Alexander Djourik. All rights reserved.
FILE: Wishbone Ash - No Smoke Without Fire.flac
  Size: 270870219 Hash: 1ACAC2E11C3810636CA10E26BCCEED01 Accuracy: -m0
  Conclusion: CDDA 100%
  Signature: 55077859AE35DA3C08915DB83307E356A9A7D32E

1980 - Just Testing (1998 MCA-Universal MCLD 19375&#41;

Продолжительность: 00:55:43
Треклист:
01. Living Proof (5:43)
02. Haunting Me (4:33)
03. Insomnia (5:08)
04. Helpless (4:06)
05. Pay The Price (3:30)
06. New Rising Star (3:54)
07. Master Of Disguise (4:25)
08. Life Line (6:33)
09. Come On [Bonus Track] (3:25)
10. Fast Johnny [Bonus Track] (4:06)
11. Blowin' Free (live) [Bonus Track] (6:35)
12. Helpless (live) [Bonus Track] (3:46)

Лог EAC

Код:
Exact Audio Copy V0.99 prebeta 4 from 23. January 2008
Отчёт EAC об извлечении, выполненном 21. июня 2011, 10:51
Wishbone Ash / Just Testing
Дисковод: _NEC    DVD_RW ND-3540A   Adapter: 0  ID: 1
Режим чтения                 : Достоверность
Использование точного потока : Да
Отключение кэша аудио        : Да
Использование указателей C2  : Нет
Коррекция смещения при чтении                     : 48
Способность читать области Lead-in и Lead-out     : Нет
Заполнение пропущенных сэмплов тишиной            : Да
Удаление блоков с тишиной в начале и конце        : Нет
При вычислениях CRC использовались нулевые сэмплы : Да
Интерфейс                                         : Встроенный Win32-интерфейс для Win NT/2000
Выходной формат : Внутренние WAV-операции
Формат сэмплов  : 44.100 Гц; 16 бит; стерео
TOC извлечённого CD
     Трек |   Старт  | Длительность | Начальный сектор | Конечный сектор
    ---------------------------------------------------------------------
       1  |  0:00.00 |    5:43.30   |           0      |      25754
       2  |  5:43.30 |    4:33.25   |       25755      |      46254
       3  | 10:16.55 |    5:07.50   |       46255      |      69329
       4  | 15:24.30 |    4:05.42   |       69330      |      87746
       5  | 19:29.72 |    3:30.18   |       87747      |     103514
       6  | 23:00.15 |    3:53.65   |      103515      |     121054
       7  | 26:54.05 |    4:24.50   |      121055      |     140904
       8  | 31:18.55 |    6:32.47   |      140905      |     170351
       9  | 37:51.27 |    3:25.20   |      170352      |     185746
      10  | 41:16.47 |    4:06.10   |      185747      |     204206
      11  | 45:22.57 |    6:34.40   |      204207      |     233796
      12  | 51:57.22 |    3:45.55   |      233797      |     250726
Характеристики диапазона извлечения и сообщения об ошибках
Выбранный диапазон
     Имя файла H:\Archiv Losless Music\Wishbone Ash\Wishbone Ash - 1980 - Just Testing (MCA-Universal MCLD 19375)\Wishbone Ash - Just Testing.wav
     Пиковый уровень 95.3 %
     Качество диапазона 100.0 %
     CRC теста 47C47038
     CRC копии 47C47038
     Копирование... OK
Ошибок не произошло
AccurateRip: сводка
Трек  1  точное извлечение (COMMENT=%eдоверие 4)  [0D0B95EC]
Трек  2  точное Tahomaизвлечение (доверие 4)  [4D30A379]
Трек  3  точное извлечение (доверие 4)  [3EFB40F5]
Трек  4  точное извлечение (доверие 4)  [FE59773E]
Трек  5  точное извлечение (доверие 4)  [6BCEBBC1]
Трек  6  точное извлечение (доверие 4)  [ACACD5E0]
Трек  7  точное извлечение (доверие 4)  [DABE3895]
Трек  8  точное извлечение (доверие 4)  [02DECC25]
Трек  9  точное извлечение (доверие 4)  [952EACD9]
Трек 10  точное извлечение (доверие 4)  [63D95F0D]
Трек 11  точное извлечение (доверие 4)  [1AFBFDBB]
Трек 12  точное извлечение (доверие 4)  [B9ADE415]
Все треки извлечены точно
Конец отчёта

Folder.auCDtect

Код:
-----------------------
DON'T MODIFY THIS FILE
-----------------------
PERFORMER: auCDtect Task Manager, ver. 1.5.1RC4 build 1.5.1.5
Copyright (c) 2008-2010 y-soft. All rights reserved
http://y-soft.org
ANALYZER: auCDtect: CD records authenticity detector, version 0.8.2
Copyright (c) 2004 Oleg Berngardt. All rights reserved.
Copyright (c) 2004 Alexander Djourik. All rights reserved.
FILE: Wishbone Ash - Just Testing.flac
  Size: 450696632 Hash: 074D8BF333D5116D9619D251927022C8 Accuracy: -m0
  Conclusion: CDDA 100%
  Signature: 58D63C78C949121FD1F4AF591C8849181CD453DC

1981 - Number The Brave

Продолжительность: 00:40:56
Треклист:
01. Loaded (4:11)
02. Where is the Love (3:20)
03. Underground (4:16)
04. Kicks on the Street (4:17)
05. Open Road (5:21)
06. Get Ready (3:15)
07. Rainstorm (4:55)
08. That's That (3:05)
09. Roller Coaster (3:19)
10. Number the Brave (4:56)

Лог EAC

Код:
Отчёт EAC об извлечении, выполненном 16. сентября 2008, 19:49 для диска:
Wishbone Ash / Number The Brave
Дисковод: HL-DT-STDVDRAM GSA-H62N   Adapter: 2  ID: 2
Режим чтения: Достоверный (C2: нет, Точный поток: да, Отключение кэша: да)
Коррекция смещения при чтении: 667
Способность читать области Lead-in и Lead-out : Нет
Выходной формат: C:\Program Files\FLAC\flac.exe   (Пользовательский кодировщик)
                     320 kBit/s
                     Дополнительные параметры: -6 -V -T "artist=%a" -T "title=%t" -T "album=%g" -T "date=%y" -T "tracknumber=%n" -T "genre=%m" -T "comment=EAC FLAC -6" %s
Другие параметры:
    Заполнение пропущенных сэмплов тишиной : Да
    Удаление блоков с тишиной в начале и конце : Нет
    Установленный внешний ASPI-интерфейс
Характеристики диапазона извлечения и сообщения об ошибках
Выбранный диапазон
     Имя файла G:\WA\Number The Brave-1981\Wishbone Ash - Number The Brave.wav.wav
     Пиковый уровень 100.0 %
     Качество диапазона 100.0 %
     CRC EE30D616
     Копирование... OK
Ошибок не произошло
Конец отчёта

Folder.auCDtect

Код:
-----------------------
DON'T MODIFY THIS FILE
-----------------------
PERFORMER: auCDtect Task Manager, ver. 1.5.1RC4 build 1.5.1.5
Copyright (c) 2008-2010 y-soft. All rights reserved
http://y-soft.org
ANALYZER: auCDtect: CD records authenticity detector, version 0.8.2
Copyright (c) 2004 Oleg Berngardt. All rights reserved.
Copyright (c) 2004 Alexander Djourik. All rights reserved.
FILE: Wishbone Ash - Number The Brave.flac
  Size: 291020422 Hash: 926A4920EA542AA594CD4D8CE478458E Accuracy: -m0
  Conclusion: CDDA 100%
  Signature: AD0E8E7BC6E9A081313112F49E907F8F43F5AFD7

1982 - Twin Barrels Burning (2006 Castle CACD 389&#41;

Продолжительность: 00:39:27
Треклист:
01. Engine Overheat (4:06)
02. Can't Fight Love (4:00)
03. Genevieve (3:36)
04. Me And My Guitar (4:01)
05. Hold On (4:51)
06. Streets Of Shame (4:37)
07. No More Lonely Nights (5:17)
08. Angels Have Mercy (3:55)
09. Wind Up (5:04)

Лог EAC

Код:
Exact Audio Copy V0.99 prebeta 4 from 23. January 2008
Отчёт EAC об извлечении, выполненном 25. февраля 2009, 14:45
Wishbone Ash / Twin Barrels Burning
Дисковод: PIONEER DVD-RW  DVR-216   Adapter: 3  ID: 0
Режим чтения                 : Достоверность
Использование точного потока : Да
Отключение кэша аудио        : Да
Использование указателей C2  : Нет
Коррекция смещения при чтении                     : 96
Способность читать области Lead-in и Lead-out     : Нет
Заполнение пропущенных сэмплов тишиной            : Да
Удаление блоков с тишиной в начале и конце        : Нет
При вычислениях CRC использовались нулевые сэмплы : Да
Интерфейс                                         : Встроенный Win32-интерфейс для Win NT/2000
Выходной формат          : Monkey's Audio (без потерь)
Выбранный битрейт        : Extra High Lossless Compression
Качество                 : Высокий
Добавление ID3-тэга      : Да
Утилита сжатия           : C:\Program Files\Monkey's Audio\Monkey's Audio.exe
TOC извлечённого CD
     Трек |   Старт  | Длительность | Начальный сектор | Конечный сектор
    ---------------------------------------------------------------------
       1  |  0:00.00 |    4:06.30   |           0      |      18479
       2  |  4:06.30 |    3:59.47   |       18480      |      36451
       3  |  8:06.02 |    3:36.33   |       36452      |      52684
       4  | 11:42.35 |    4:01.05   |       52685      |      70764
       5  | 15:43.40 |    4:50.67   |       70765      |      92581
       6  | 20:34.32 |    4:37.08   |       92582      |     113364
       7  | 25:11.40 |    5:17.02   |      113365      |     137141
       8  | 30:28.42 |    3:55.08   |      137142      |     154774
       9  | 34:23.50 |    5:03.60   |      154775      |     177559
Характеристики диапазона извлечения и сообщения об ошибках
Выбранный диапазон
     Имя файла G:\ПАПА\Wishbone Ash\Wishbone Ash - Twin Barrels Burning.wav
     Пиковый уровень 99.8 %
     Качество диапазона 100.0 %
     CRC копии 5F25A167
     Копирование... OK
Ошибок не произошло
AccurateRip: сводка
Трек  1  точное извлечение (доверие 1)  [33B1C647]
Трек  2  точное извлечение (доверие 1)  [3B156365]
Трек  3  точное извлечение (доверие 1)  [D991C2E1]
Трек  4  точное извлечение (доверие 1)  [E1589D6C]
Трек  5  точное извлечение (доверие 1)  [03AE86FE]
Трек  6  точное извлечение (доверие 1)  [49F557FB]
Трек  7  точное извлечение (доверие 1)  [A1D7CBBC]
Трек  8  точное извлечение (доверие 1)  [81D10F0A]
Трек  9  точное извлечение (доверие 1)  [EE779971]
Все треки извлечены точно
Конец отчёта

Folder.auCDtect

Код:
-----------------------
DON'T MODIFY THIS FILE
-----------------------
PERFORMER: auCDtect Task Manager, ver. 1.5.1RC4 build 1.5.1.5
Copyright (c) 2008-2010 y-soft. All rights reserved
http://y-soft.org
ANALYZER: auCDtect: CD records authenticity detector, version 0.8.2
Copyright (c) 2004 Oleg Berngardt. All rights reserved.
Copyright (c) 2004 Alexander Djourik. All rights reserved.
FILE: Wishbone Ash - Twin Barrels Burning.flac
  Size: 277171683 Hash: 3EF0EA0766FF56452C90D06CC005CFD6 Accuracy: -m0
  Conclusion: CDDA 99%
  Signature: 13640BF6313F9F08218C632CDCAB9D69CEFD920C

1985 - Raw to the Bone (CASTLE CLACD 390&#41;

Продолжительность: 00:38:28
Треклист:
01. Cell of Fame (4:38)
02. People in Motion (3:51)
03. Don't Cry (3:30)
04. Love Is Blue (3:44)
05. Long Live the Night (3:32)
06. Rocket in My Pocket (3:46)
07. It's Only Love (4:13)
08. Don't You Mess (3:53)
09. Dreams (Searching for an Answer) (3:30)
10. Perfect Timing (3:51)

Лог EAC

Код:
Exact Audio Copy V0.99 prebeta 4 from 23. January 2008
Отчёт EAC об извлечении, выполненном 8. ноября 2009, 14:50
Wishbone Ash / Raw to the Bone
Дисковод: ASUS    DRW-1814BLT   Adapter: 2  ID: 0
Режим чтения                 : Достоверность
Использование точного потока : Да
Отключение кэша аудио        : Да
Использование указателей C2  : Нет
Коррекция смещения при чтении                     : 6
Способность читать области Lead-in и Lead-out     : Нет
Заполнение пропущенных сэмплов тишиной            : Да
Удаление блоков с тишиной в начале и конце        : Нет
При вычислениях CRC использовались нулевые сэмплы : Да
Интерфейс                                         : Встроенный Win32-интерфейс для Win NT/2000
Выходной формат          : Пользовательский кодировщик
Выбранный битрейт        : 1024 kBit/s
Качество                 : Высокий
Добавление ID3-тэга      : Нет
Утилита сжатия           : C:\Program Files\Exact Audio Copy\FLAC\FLAC.EXE
Дополнительные параметры : -2 -V -T "ARTIST=%a" -T "TITLE=%t" -T "ALBUM=%g" -T "DATE=%y" -T "TRACKNUMBER=%n" -T "GENRE=%m" -T "COMMENT=%e" %s -o %d
TOC извлечённого CD
     Трек |   Старт  | Длительность | Начальный сектор | Конечный сектор
    ---------------------------------------------------------------------
       1  |  0:00.00 |    4:38.28   |           0      |      20877
       2  |  4:38.28 |    3:50.45   |       20878      |      38172
       3  |  8:28.73 |    3:29.61   |       38173      |      53908
       4  | 11:58.59 |    3:43.60   |       53909      |      70693
       5  | 15:42.44 |    3:31.40   |       70694      |      86558
       6  | 19:14.09 |    3:46.35   |       86559      |     103543
       7  | 23:00.44 |    4:12.67   |      103544      |     122510
       8  | 27:13.36 |    3:53.23   |      122511      |     140008
       9  | 31:06.59 |    3:30.07   |      140009      |     155765
      10  | 34:36.66 |    3:51.13   |      155766      |     173103
Характеристики диапазона извлечения и сообщения об ошибках
Выбранный диапазон
     Имя файла F:\Torrent\OUT\Wishbone Ash - Raw to the Bone.wav
     Пиковый уровень 100.0 %
     Качество диапазона 100.0 %
     CRC теста 307E44C3
     CRC копии 307E44C3
     Копирование... OK
Ошибок не произошло
Конец отчёта

Folder.auCDtect

Код:
-----------------------
DON'T MODIFY THIS FILE
-----------------------
PERFORMER: auCDtect Task Manager, ver. 1.5.1RC4 build 1.5.1.5
Copyright (c) 2008-2010 y-soft. All rights reserved
http://y-soft.org
ANALYZER: auCDtect: CD records authenticity detector, version 0.8.2
Copyright (c) 2004 Oleg Berngardt. All rights reserved.
Copyright (c) 2004 Alexander Djourik. All rights reserved.
FILE: Wishbone Ash - Raw to the Bone.flac
  Size: 280663451 Hash: B9E47165A80E32FAD5D8C34BFA5CF4AC Accuracy: -m0
  Conclusion: MPEG 95%
  Signature: 35D2B96783BDDDA8FCE57435E68E06DB9B9A5EB5

Spectrogram

1987 - Nouveau Calls

Продолжительность: 00:47:02
Треклист:
01. Tangible Evidence (4:24)
02. Clousseau (3:41)
03. Flags of Convenience (4:33)
04. From Soho to Sunset (3:28)
05. Arabesque (4:32)
06. In The Skin (4:53)
07. Something's Happening in Room 602 (3:35)
08. Johnny Left Home Without It (3:40)
09. The Spirit Flies Free (3:45)
10. A Rose is a Rose (3:40)
11. Real Guitars have Wings (3:15)
12. T-Bone Shuffle (3:36)

Лог EAC

Код:
Отчёт EAC об извлечении, выполненном 17. сентября 2008, 20:48 для диска:
Wishbone Ash / Nouveau Calls
Дисковод: HL-DT-STDVDRAM GSA-H62N   Adapter: 2  ID: 2
Режим чтения: Достоверный (C2: нет, Точный поток: да, Отключение кэша: да)
Коррекция смещения при чтении: 667
Способность читать области Lead-in и Lead-out : Нет
Выходной формат: C:\Program Files\FLAC\flac.exe   (Пользовательский кодировщик)
                     320 kBit/s
                     Дополнительные параметры: -6 -V -T "artist=%a" -T "title=%t" -T "album=%g" -T "date=%y" -T "tracknumber=%n" -T "genre=%m" -T "comment=EAC FLAC -6" %s
Другие параметры:
    Заполнение пропущенных сэмплов тишиной : Да
    Удаление блоков с тишиной в начале и конце : Нет
    Установленный внешний ASPI-интерфейс
Характеристики диапазона извлечения и сообщения об ошибках
Выбранный диапазон
     Имя файла G:\WA\Nouveau Calls-1987(no  speak)\Wishbone Ash - Nouveau Calls.wav.wav
     Пиковый уровень 99.3 %
     Качество диапазона 100.0 %
     CRC 3A664B1A
     Копирование... OK
Ошибок не произошло
Конец отчёта

Folder.auCDtect

Код:
-----------------------
DON'T MODIFY THIS FILE
-----------------------
PERFORMER: auCDtect Task Manager, ver. 1.5.1RC4 build 1.5.1.5
Copyright (c) 2008-2010 y-soft. All rights reserved
http://y-soft.org
ANALYZER: auCDtect: CD records authenticity detector, version 0.8.2
Copyright (c) 2004 Oleg Berngardt. All rights reserved.
Copyright (c) 2004 Alexander Djourik. All rights reserved.
FILE: Wishbone Ash - Nouveau Calls.flac
  Size: 341198515 Hash: F7A6D3784A2B19574F4B294FA0C39CCC Accuracy: -m0
  Conclusion: CDDA 99%
  Signature: 505E5391BB61DC3A989597BFA543D3FBCD4FAA79

1989 - Here To Hear

Продолжительность: 00:58:53
Треклист:
01. Cosmic Jazz (3:32)
02. Keeper Of The Light (3:56)
03. Mental Radio (4:55)
04. Walk On Water (4:03)
05. Witness To Wonder (4:11)
06. Lost Cause In Paradise (4:46)
07. Why Don't We (6:16)
08. In The Case (3:30)
09. Hole In The Heart(Part One) (3:06)
10. Hole In The Heart(Part Two) (4:35)
11. Heaven Is (4:36)
12. Bolan's Monument (3:57)
13. Duffle Shuffle (4:06)
14. Cosmic Jazz(karaoke) (3:24)

Лог EAC

Код:
Отчёт EAC об извлечении, выполненном 16. сентября 2008, 20:23 для диска:
Wishbone Ash / Here To Hear
Дисковод: HL-DT-STDVDRAM GSA-H62N   Adapter: 2  ID: 2
Режим чтения: Достоверный (C2: нет, Точный поток: да, Отключение кэша: да)
Коррекция смещения при чтении: 667
Способность читать области Lead-in и Lead-out : Нет
Выходной формат: C:\Program Files\FLAC\flac.exe   (Пользовательский кодировщик)
                     320 kBit/s
                     Дополнительные параметры: -6 -V -T "artist=%a" -T "title=%t" -T "album=%g" -T "date=%y" -T "tracknumber=%n" -T "genre=%m" -T "comment=EAC FLAC -6" %s
Другие параметры:
    Заполнение пропущенных сэмплов тишиной : Да
    Удаление блоков с тишиной в начале и конце : Нет
    Установленный внешний ASPI-интерфейс
Характеристики диапазона извлечения и сообщения об ошибках
Выбранный диапазон
     Имя файла G:\WA\Here To Hear-1989\Here To Hear.wav
     Пиковый уровень 100.0 %
     Качество диапазона 99.7 %
     CRC EE30D616
     Копирование завершено
Конец отчёта

Folder.auCDtect

Код:
-----------------------
DON'T MODIFY THIS FILE
-----------------------
PERFORMER: auCDtect Task Manager, ver. 1.5.1RC4 build 1.5.1.5
Copyright (c) 2008-2010 y-soft. All rights reserved
http://y-soft.org
ANALYZER: auCDtect: CD records authenticity detector, version 0.8.2
Copyright (c) 2004 Oleg Berngardt. All rights reserved.
Copyright (c) 2004 Alexander Djourik. All rights reserved.
FILE: Wishbone Ash - Here To Hear.flac
  Size: 422355017 Hash: A58CD8EDEFFB2F16E7656D74DB9AF20B Accuracy: -m0
  Conclusion: CDDA 100%
  Signature: 7D1607D776F974C2BB9649705E486090277A0AB6

1991 - Strange Affair

Продолжительность: 00:55:39
Треклист:
01. Strange Affair (4:22)
02. Wings Of Desire (3:52)
03. Renegade (3:55)
04. Dream Train (5:01)
05. Some Conversation (4:18)
06. Say You Will (4:09)
07. Rollin' (3:56)
08. You (3:52)
09. Hard Times (3:04)
10. Standing In The Rain (5:42)
11. Strange Affair (With Brass) (4:28)
12. Rollin' (With Brass) (3:56)
13. Dream Train (With Brass) (5:04)

Лог EAC

Код:
Отчёт EAC об извлечении, выполненном 20. сентября 2008, 7:43 для диска:
Wishbone Ash / Strange Affair
Дисковод: HL-DT-STDVDRAM GSA-H62N   Adapter: 2  ID: 2
Режим чтения: Достоверный (C2: нет, Точный поток: да, Отключение кэша: да)
Коррекция смещения при чтении: 667
Способность читать области Lead-in и Lead-out : Нет
Выходной формат: C:\Program Files\FLAC\flac.exe   (Пользовательский кодировщик)
                     320 kBit/s
                     Дополнительные параметры: -6 -V -T "artist=%a" -T "title=%t" -T "album=%g" -T "date=%y" -T "tracknumber=%n" -T "genre=%m" -T "comment=EAC FLAC -6" %s
Другие параметры:
    Заполнение пропущенных сэмплов тишиной : Да
    Удаление блоков с тишиной в начале и конце : Нет
    Установленный внешний ASPI-интерфейс
Характеристики диапазона извлечения и сообщения об ошибках
Выбранный диапазон
     Имя файла G:\WA\Strange Affair-2003\Wishbone Ash - Strange Affair.wav.wav
     Пиковый уровень 99.3 %
     Качество диапазона 100.0 %
     CRC 69F09795
     Копирование... OK
Ошибок не произошло
Конец отчёта

Folder.auCDtect

Код:
-----------------------
DON'T MODIFY THIS FILE
-----------------------
PERFORMER: auCDtect Task Manager, ver. 1.5.1RC4 build 1.5.1.5
Copyright (c) 2008-2010 y-soft. All rights reserved
http://y-soft.org
ANALYZER: auCDtect: CD records authenticity detector, version 0.8.2
Copyright (c) 2004 Oleg Berngardt. All rights reserved.
Copyright (c) 2004 Alexander Djourik. All rights reserved.
FILE: Wishbone Ash - Strange Affair.flac
  Size: 426058231 Hash: C3360FF7E5EA325EB042BF576D4A495F Accuracy: -m0
  Conclusion: CDDA 100%
  Signature: F14AEB03BEFB7D97D07259056E7928EAA1095548

1994 - Bare Bones

Продолжительность: 00:50:04
Треклист:
01. Wings of Desire (3:40)
02. Errors of My Way (5:15)
03. Master of Disguise (3:51)
04. You Won't Take Me Down (5:28)
05. Love Abuse (4:02)
06. (Won't You Give Him) One More Chance (3:15)
07. Baby Don't Mind (3:49)
08. Living Proof (4:14)
09. Hard Times (4:43)
10. Strange Affair (5:52)
11. Everybody Needs a Friend (5:57)

Лог EAC

Код:
Отчёт EAC об извлечении, выполненном 17. сентября 2008, 21:51 для диска:
Wishbone Ash / Bare Bones
Дисковод: HL-DT-STDVDRAM GSA-H62N   Adapter: 2  ID: 2
Режим чтения: Достоверный (C2: нет, Точный поток: да, Отключение кэша: да)
Коррекция смещения при чтении: 667
Способность читать области Lead-in и Lead-out : Нет
Выходной формат: C:\Program Files\FLAC\flac.exe   (Пользовательский кодировщик)
                     320 kBit/s
                     Дополнительные параметры: -6 -V -T "artist=%a" -T "title=%t" -T "album=%g" -T "date=%y" -T "tracknumber=%n" -T "genre=%m" -T "comment=EAC FLAC -6" %s
Другие параметры:
    Заполнение пропущенных сэмплов тишиной : Да
    Удаление блоков с тишиной в начале и конце : Нет
    Установленный внешний ASPI-интерфейс
Характеристики диапазона извлечения и сообщения об ошибках
Выбранный диапазон
     Имя файла G:\WA\Bare Bones-2000\Wishbone Ash - Bare Bones.wav.wav
     Пиковый уровень 98.8 %
     Качество диапазона 100.0 %
     CRC A1620555
     Копирование... OK
Ошибок не произошло
Конец отчёта

Folder.auCDtect

Код:
-----------------------
DON'T MODIFY THIS FILE
-----------------------
PERFORMER: auCDtect Task Manager, ver. 1.5.1RC4 build 1.5.1.5
Copyright (c) 2008-2010 y-soft. All rights reserved
http://y-soft.org
ANALYZER: auCDtect: CD records authenticity detector, version 0.8.2
Copyright (c) 2004 Oleg Berngardt. All rights reserved.
Copyright (c) 2004 Alexander Djourik. All rights reserved.
FILE: Wishbone Ash - Bare Bones.flac
  Size: 336988201 Hash: 2186F2F836C70A7DD277B6D4BB5C90BA Accuracy: -m0
  Conclusion: CDDA 100%
  Signature: F9D85CC75976EC597D99B79385A60E51E6C8E499

1996 - Illuminations (Renaissance 181&#41;

Продолжительность: 01:05:07
Треклист:
01. Mountainside (6:02)
02. On Your Own (5:33)
03. Top of the World (6:39)
04. No Joke (6:47)
05. Tales of the Wise (10:06)
06. Another Time (5:24)
07. A Thousand Years (4:06)
08. The Ring (4:35)
09. Comfort Zone (4:27)
10. Mystery Man (4:28)
11. Wait Out The Storm (3:44)
12. Crack Of Dawn (3:17)

Лог EAC

Код:
Exact Audio Copy V0.99 prebeta 3 from 28. July 2007
Отчёт EAC об извлечении, выполненном 23. октября 2008, 19:46
Wishbone Ash / Illuminations
Дисковод: SONY    CD-RW  CRX320EE   Adapter: 1  ID: 0
Режим чтения                 : Достоверность
Использование точного потока : Да
Отключение кэша аудио        : Да
Использование указателей C2  : Нет
Коррекция смещения при чтении                     : 6
Способность читать области Lead-in и Lead-out     : Нет
Заполнение пропущенных сэмплов тишиной            : Да
Удаление блоков с тишиной в начале и конце        : Нет
При вычислениях CRC использовались нулевые сэмплы : Да
Интерфейс                                         : Встроенный Win32-интерфейс для Win NT/2000
Выходной формат          : Пользовательский кодировщик
Выбранный битрейт        : 768 kBit/s
Качество                 : Высокий
Добавление ID3-тэга      : Нет
Утилита сжатия           : C:\Program Files\Exact Audio Copy\FLAC\FLAC.EXE
Дополнительные параметры : -6 -V -T "ARTIST=%a" -T "TITLE=%t" -T "ALBUM=%g" -T "DATE=%y" -T "TRACKNUMBER=%n" -T "GENRE=%m" -T "COMMENT=%e" %s -o %d
TOC извлечённого CD
     Трек |   Старт  | Длительность | Начальный сектор | Конечный сектор
    ---------------------------------------------------------------------
       1  |  0:00.00 |    6:01.40   |           0      |      27114
       2  |  6:01.40 |    5:33.24   |       27115      |      52113
       3  | 11:34.64 |    6:38.70   |       52114      |      82033
       4  | 18:13.59 |    6:46.52   |       82034      |     112535
       5  | 25:00.36 |   10:05.65   |      112536      |     157975
       6  | 35:06.26 |    5:23.48   |      157976      |     182248
       7  | 40:29.74 |    4:05.40   |      182249      |     200663
       8  | 44:35.39 |    4:35.31   |      200664      |     221319
       9  | 49:10.70 |    4:26.59   |      221320      |     241328
      10  | 53:37.54 |    4:28.21   |      241329      |     261449
      11  | 58:06.00 |    3:44.12   |      261450      |     278261
      12  | 61:50.12 |    3:17.08   |      278262      |     293044
Характеристики диапазона извлечения и сообщения об ошибках
Выбранный диапазон
     Имя файла E:\!!LOSSLESS MUSIC\Тек оо\Wishbone Ash - Illuminations.wav
     Пиковый уровень 97.7 %
     Качество диапазона 100.0 %
     CRC теста 3481315A
     CRC копии 3481315A
     Копирование... OK
Ошибок не произошло
AccurateRip: сводка
Трек  1  нет в базе данных
Трек  2  нет в базе данных
Трек  3  нет в базе данных
Трек  4  нет в базе данных
Трек  5  нет в базе данных
Трек  6  нет в базе данных
Трек  7  нет в базе данных
Трек  8  нет в базе данных
Трек  9  нет в базе данных
Трек 10  нет в базе данных
Трек 11  нет в базе данных
Трек 12  нет в базе данных
Ни одного трека нет в базе AccurateRip
Конец отчёта

Folder.auCDtect

Код:
-----------------------
DON'T MODIFY THIS FILE
-----------------------
PERFORMER: auCDtect Task Manager, ver. 1.5.1RC4 build 1.5.1.5
Copyright (c) 2008-2010 y-soft. All rights reserved
http://y-soft.org
ANALYZER: auCDtect: CD records authenticity detector, version 0.8.2
Copyright (c) 2004 Oleg Berngardt. All rights reserved.
Copyright (c) 2004 Alexander Djourik. All rights reserved.
FILE: Wishbone Ash - Illuminations.flac
  Size: 477912078 Hash: 352486CB2703297BA489354FD7F1763E Accuracy: -m0
  Conclusion: CDDA 100%
  Signature: 726C4A9EDDDA738A9D5ACF3F176AEDBA7A07A6D0

1998 - Trance Visionary

Продолжительность: 01:12:01
Треклист:
01. Numerology (6:54)
02. Wonderful Stash (7:18)
03. Heritage (3:07)
04. Interfaze (0:30)
05. Powerbright (Black & White Screen) (4:12)
06. Remnants Of A Paranormal Menagerie (1:26)
07. Narcissus Visionary (7:58)
08. Trance Visionary (6:48)
09. Flutterby (5:36)
10. Banner Headlines (5:02)
11. The Loner (2:37)
12. Powerbright Violation (1:45)
13. Gutterfly (1:25)
14. Wronged By Righteousness (7:25)

Лог EAC

Код:
Exact Audio Copy V0.99 prebeta 4 from 23. January 2008
Отчёт EAC об извлечении, выполненном 20. марта 2009, 16:44
Wishbone Ash / Trance Visionary
Дисковод: ASUS    DRW-1814BLT   Adapter: 1  ID: 0
Режим чтения                 : Достоверность
Использование точного потока : Да
Отключение кэша аудио        : Да
Использование указателей C2  : Нет
Коррекция смещения при чтении                     : 6
Способность читать области Lead-in и Lead-out     : Нет
Заполнение пропущенных сэмплов тишиной            : Да
Удаление блоков с тишиной в начале и конце        : Нет
При вычислениях CRC использовались нулевые сэмплы : Да
Интерфейс                                         : Встроенный Win32-интерфейс для Win NT/2000
Выходной формат          : Пользовательский кодировщик
Выбранный битрейт        : 1024 kBit/s
Качество                 : Высокий
Добавление ID3-тэга      : Нет
Утилита сжатия           : C:\Program Files\Exact Audio Copy\FLAC\FLAC.EXE
Дополнительные параметры : -8 -V -T "ARTIST=%a" -T "TITLE=%t" -T "ALBUM=%g" -T "DATE=%y" -T "TRACKNUMBER=%n" -T "GENRE=%m" -T "COMMENT=%e" %s -o %d
TOC извлечённого CD
     Трек |   Старт  | Длительность | Начальный сектор | Конечный сектор
    ---------------------------------------------------------------------
       1  |  0:00.00 |    6:54.15   |           0      |      31064
       2  |  6:54.15 |    7:17.65   |       31065      |      63904
       3  | 14:12.05 |    3:07.10   |       63905      |      77939
       4  | 17:19.15 |    0:29.52   |       77940      |      80166
       5  | 17:48.67 |    4:11.70   |       80167      |      99061
       6  | 22:00.62 |    1:25.45   |       99062      |     105481
       7  | 23:26.32 |    7:57.73   |      105482      |     141329
       8  | 31:24.30 |    6:47.40   |      141330      |     171894
       9  | 38:11.70 |    5:35.55   |      171895      |     197074
      10  | 43:47.50 |    5:02.12   |      197075      |     219736
      11  | 48:49.62 |    2:37.13   |      219737      |     231524
      12  | 51:27.00 |    1:45.27   |      231525      |     239426
      13  | 53:12.27 |    1:24.48   |      239427      |     245774
      14  | 54:37.00 |    7:24.60   |      245775      |     279134
Характеристики диапазона извлечения и сообщения об ошибках
Выбранный диапазон
     Имя файла I:\Music\Wishbone Ash - Trance Visionary.wav
     Пиковый уровень 94.3 %
     Качество диапазона 99.9 %
     CRC теста AE8B391A
     CRC копии AE8B391A
     Копирование... OK
Ошибок не произошло
Конец отчёта

Folder.auCDtect

Код:
-----------------------
DON'T MODIFY THIS FILE
-----------------------
PERFORMER: auCDtect Task Manager, ver. 1.5.1RC4 build 1.5.1.5
Copyright (c) 2008-2010 y-soft. All rights reserved
http://y-soft.org
ANALYZER: auCDtect: CD records authenticity detector, version 0.8.2
Copyright (c) 2004 Oleg Berngardt. All rights reserved.
Copyright (c) 2004 Alexander Djourik. All rights reserved.
FILE: Wishbone Ash - Trance Visionary.flac
  Size: 414122307 Hash: 9A7BA2914D72A34D73C8306E11EB1E29 Accuracy: -m0
  Conclusion: CDDA 100%
  Signature: 115FDD8025B7718C27951FF236A31BBDDCE02E4E

2002 - Bona Fide (limited edition&#41; (2006 UK Talking Elephant TECD088&#41;

Продолжительность: 01:09:11
Треклист:
01. Almighty Blues (5:24)
02. Enigma (4:11)
03. Faith, Hope And Love (5:55)
04. Ancient Remedy (4:49)
05. Changing Tracks (4:18)
06. Shoulda, Woulda, Coulda (4:00)
07. Bona Fide (3:08)
08. Difference In Time (4:31)
09. Come Rain, Come Shine (6:10)
10. Peace (3:51)
11. Hard On You (studio 2005-bonus track) (4:42)
12. Almighty Blues (live 2006-bonus track) (7:18)
13. Tales Of The Wise (live 2006-bonus track) (10:54)

Лог EAC

Код:
Exact Audio Copy V0.99 prebeta 5 from 4. May 2009
Отчёт EAC об извлечении, выполненном 22. августа 2010, 8:48
Wishbone Ash / Bona Fide (limited edition)
Дисковод: Optiarc DVD RW AD-5590A   Adapter: 3  ID: 0
Режим чтения                 : Достоверность
Использование точного потока : Да
Отключение кэша аудио        : Да
Использование указателей C2  : Нет
Коррекция смещения при чтении                     : 48
Способность читать области Lead-in и Lead-out     : Нет
Заполнение пропущенных сэмплов тишиной            : Да
Удаление блоков с тишиной в начале и конце        : Нет
При вычислениях CRC использовались нулевые сэмплы : Да
Интерфейс                                         : Установленный внешний ASPI-интерфейс
Выходной формат          : Пользовательский кодировщик
Выбранный битрейт        : 320 kBit/s
Качество                 : Высокий
Добавление ID3-тэга      : Нет
Утилита сжатия           : D:\Архив программ и драйверов\Мультимедийные программы\EAC & lame\flac.exe
Дополнительные параметры : -8 -V %s
TOC извлечённого CD
     Трек |   Старт  | Длительность | Начальный сектор | Конечный сектор
    ---------------------------------------------------------------------
       1  |  0:00.00 |    5:24.13   |           0      |      24312
       2  |  5:24.13 |    4:10.44   |       24313      |      43106
       3  |  9:34.57 |    5:55.23   |       43107      |      69754
       4  | 15:30.05 |    4:48.58   |       69755      |      91412
       5  | 20:18.63 |    4:18.17   |       91413      |     110779
       6  | 24:37.05 |    4:00.16   |      110780      |     128795
       7  | 28:37.21 |    3:08.02   |      128796      |     142897
       8  | 31:45.23 |    4:30.64   |      142898      |     163211
       9  | 36:16.12 |    6:09.43   |      163212      |     190929
      10  | 42:25.55 |    3:50.47   |      190930      |     208226
      11  | 46:16.27 |    4:42.30   |      208227      |     229406
      12  | 50:58.57 |    7:18.16   |      229407      |     262272
      13  | 58:16.73 |   10:54.14   |      262273      |     311336
Характеристики диапазона извлечения и сообщения об ошибках
Выбранный диапазон
     Имя файла G:\User Manual 3Q 2.5\раздачи\Wishbone Ash - Bona Fide\Wishbone Ash - Bona Fide (limited edition).wav
     Пиковый уровень 100.0 %
     Качество диапазона 100.0 %
     CRC копии 3B4FC037
     Копирование... OK
Ошибок не произошло
Конец отчёта

Folder.auCDtect

Код:
-----------------------
DON'T MODIFY THIS FILE
-----------------------
PERFORMER: auCDtect Task Manager, ver. 1.5.1RC4 build 1.5.1.5
Copyright (c) 2008-2010 y-soft. All rights reserved
http://y-soft.org
ANALYZER: auCDtect: CD records authenticity detector, version 0.8.2
Copyright (c) 2004 Oleg Berngardt. All rights reserved.
Copyright (c) 2004 Alexander Djourik. All rights reserved.
FILE: Wishbone Ash - Bona Fide (limited edition).flac
  Size: 510295797 Hash: 4E55612A32E18C951FB5AF659A30B5EE Accuracy: -m0
  Conclusion: CDDA 100%
  Signature: B36FB05E86EBBD245EEC3746FAB30F73A88D3394

2004 - Lost Pearls

Продолжительность: 00:56:16
Треклист:
01. Is justice Done (4:24)
02. The Bells Chime (3:24)
03. Hard On You (5:01)
04. Out On A Limb (3:46)
05. Where You Been (4:02)
06. Halfway House (Martin vocal) (3:48)
07. Halfway House (Claire vocal) (3:50)
08. Football And Boxing (3:30)
09. John Sherry Jam (6:30)
10. Too Much Monkey Business (live) (5:35)
11. Night Hawker (6:13)
12. Sheriff Of Sherwood (demo) (6:12)

Лог EAC

Код:
Отчёт EAC об извлечении, выполненном 20. сентября 2008, 8:27 для диска:
Wishbone Ash / Lost Pearls
Дисковод: HL-DT-STDVDRAM GSA-H62N   Adapter: 2  ID: 2
Режим чтения: Достоверный (C2: нет, Точный поток: да, Отключение кэша: да)
Коррекция смещения при чтении: 667
Способность читать области Lead-in и Lead-out : Нет
Выходной формат: C:\Program Files\FLAC\flac.exe   (Пользовательский кодировщик)
                     320 kBit/s
                     Дополнительные параметры: -6 -V -T "artist=%a" -T "title=%t" -T "album=%g" -T "date=%y" -T "tracknumber=%n" -T "genre=%m" -T "comment=EAC FLAC -6" %s
Другие параметры:
    Заполнение пропущенных сэмплов тишиной : Да
    Удаление блоков с тишиной в начале и конце : Нет
    Установленный внешний ASPI-интерфейс
Характеристики диапазона извлечения и сообщения об ошибках
Выбранный диапазон
     Имя файла G:\WA\Lost Pearls-2004\Wishbone Ash - Lost Pearls.wav.wav
     Пиковый уровень 98.8 %
     Качество диапазона 100.0 %
     CRC F9ABF615
     Копирование... OK
Ошибок не произошло
Конец отчёта

Folder.auCDtect

Код:
-----------------------
DON'T MODIFY THIS FILE
-----------------------
PERFORMER: auCDtect Task Manager, ver. 1.5.1RC4 build 1.5.1.5
Copyright (c) 2008-2010 y-soft. All rights reserved
http://y-soft.org
ANALYZER: auCDtect: CD records authenticity detector, version 0.8.2
Copyright (c) 2004 Oleg Berngardt. All rights reserved.
Copyright (c) 2004 Alexander Djourik. All rights reserved.
FILE: Wishbone Ash - Lost Pearls.flac
  Size: 395144502 Hash: F9CD467211839375494085D2A8D87838 Accuracy: -m0
  Conclusion: CDDA 100%
  Signature: 2D3AF3269BF71701E68CA68180DAE840F765C89C

2006 - Clan Destiny (Castle CACD 389&#41;

Продолжительность: 00:47:33
Треклист:
01. Eyes Wide Open (5:15)
02. Dreams Outta Dust (4:27)
03. Healing Ground (4:25)
04. Steam Town (4:03)
05. Loose Change (4:47)
06. Surfing A Slow Wave (3:48)
07. Slime Time (4:53)
08. Capture The Moment (3:30)
09. Your Dog (3:33)
10. The Raven (4:46)
11. Motherless Child (4:07)

Лог EAC

Код:
Exact Audio Copy V0.99 prebeta 4 from 23. January 2008
Отчёт EAC об извлечении, выполненном 20. марта 2009, 23:41
Wishbone Ash / Clan Destiny
Дисковод: Optiarc DVD RW AD-7543A   Adapter: 1  ID: 0
Режим чтения                 : Достоверность
Использование точного потока : Да
Отключение кэша аудио        : Да
Использование указателей C2  : Нет
Коррекция смещения при чтении                     : 48
Способность читать области Lead-in и Lead-out     : Нет
Заполнение пропущенных сэмплов тишиной            : Да
Удаление блоков с тишиной в начале и конце        : Нет
При вычислениях CRC использовались нулевые сэмплы : Да
Интерфейс                                         : Установленный внешний ASPI-интерфейс
Выходной формат : Внутренние WAV-операции
Формат сэмплов  : 44.100 Гц; 16 бит; стерео
TOC извлечённого CD
     Трек |   Старт  | Длительность | Начальный сектор | Конечный сектор
    ---------------------------------------------------------------------
       1  |  0:00.00 |    5:14.39   |           0      |      23588
       2  |  5:14.39 |    4:26.56   |       23589      |      43594
       3  |  9:41.20 |    4:24.67   |       43595      |      63461
       4  | 14:06.12 |    4:02.43   |       63462      |      81654
       5  | 18:08.55 |    4:47.09   |       81655      |     103188
       6  | 22:55.64 |    3:48.13   |      103189      |     120301
       7  | 26:44.02 |    4:53.35   |      120302      |     142311
       8  | 31:37.37 |    3:30.05   |      142312      |     158066
       9  | 35:07.42 |    3:32.69   |      158067      |     174035
      10  | 38:40.36 |    4:45.64   |      174036      |     195474
      11  | 43:26.25 |    4:06.61   |      195475      |     213985
Характеристики диапазона извлечения и сообщения об ошибках
Выбранный диапазон
     Имя файла G:\My Interner Torrents\Uploader\Wishbone Ash - Twin Barrels Burning+Clan Destiny\Wishbone Ash - Clan Destiny (2006)\Wishbone Ash - Clan Destiny.wav
     Пиковый уровень 100.0 %
     Качество диапазона 100.0 %
     CRC копии 106055B4
     Копирование... OK
Ошибок не произошло
AccurateRip: сводка
Трек  1  нет в базе данных
Трек  2  нет в базе данных
Трек  3  нет в базе данных
Трек  4  нет в базе данных
Трек  5  нет в базе данных
Трек  6  нет в базе данных
Трек  7  нет в базе данных
Трек  8  нет в базе данных
Трек  9  нет в базе данных
Трек 10  нет в базе данных
Трек 11  нет в базе данных
Ни одного трека нет в базе AccurateRip
Конец отчёта

Folder.auCDtect

Код:
-----------------------
DON'T MODIFY THIS FILE
-----------------------
PERFORMER: auCDtect Task Manager, ver. 1.5.1RC4 build 1.5.1.5
Copyright (c) 2008-2010 y-soft. All rights reserved
http://y-soft.org
ANALYZER: auCDtect: CD records authenticity detector, version 0.8.2
Copyright (c) 2004 Oleg Berngardt. All rights reserved.
Copyright (c) 2004 Alexander Djourik. All rights reserved.
FILE: Wishbone Ash - Clan Destiny.flac
  Size: 345163279 Hash: 55129FA1025F395A6A9716FBD046DF0C Accuracy: -m0
  Conclusion: CDDA 100%
  Signature: 83F4F18B594FDF5811FB002BBDC8EB61AEC79B6B

2007 - The Power Of Eternity (Talking Elephant TECD119&#41;

Продолжительность: 00:49:31
Треклист:
01. The Power (5:48)
02. Driving a Wedge (4:24)
03. In Crisis (6:35)
04. Dancing with the Shadows (5:55)
05. Happiness (4:24)
06. Northern Lights (Instrumental) (3:05)
07. Your Indulgence (3:31)
08. Growing Up (4:39)
09. Disappearing (5:14)
10. Hope Springs Eternal (5:55)

Лог EAC

Код:
Exact Audio Copy V0.99 prebeta 4 from 23. January 2008
EAC extraction logfile from 14. March 2008, 13:27
Wishbone Ash / The Power Of Eternity
Used drive  : TSSTcorpCD/DVDW SH-S182M   Adapter: 4  ID: 0
Read mode               : Secure
Utilize accurate stream : Yes
Defeat audio cache      : Yes
Make use of C2 pointers : No
Read offset correction                      : 6
Overread into Lead-In and Lead-Out          : No
Fill up missing offset samples with silence : Yes
Delete leading and trailing silent blocks   : No
Null samples used in CRC calculations       : Yes
Used interface                              : Native Win32 interface for Win NT & 2000
Used output format : Internal WAV Routines
Sample format      : 44.100 Hz; 16 Bit; Stereo
TOC of the extracted CD
     Track |   Start  |  Length  | Start sector | End sector
    ---------------------------------------------------------
        1  |  0:00.00 |  5:48.24 |         0    |    26123
        2  |  5:48.24 |  4:24.33 |     26124    |    45956
        3  | 10:12.57 |  6:35.35 |     45957    |    75616
        4  | 16:48.17 |  5:55.07 |     75617    |   102248
        5  | 22:43.24 |  4:24.36 |    102249    |   122084
        6  | 27:07.60 |  3:05.03 |    122085    |   135962
        7  | 30:12.63 |  3:30.54 |    135963    |   151766
        8  | 33:43.42 |  4:38.54 |    151767    |   172670
        9  | 38:22.21 |  5:14.08 |    172671    |   196228
       10  | 43:36.29 |  5:55.16 |    196229    |   222869
Range status and errors
Selected range
     Filename F:\Release\Wishbone Ash - The Power Of Eternity\Wishbone Ash - The Power Of Eternity.wav
     Peak level 100.0 %
     Range quality 100.0 %
     Test CRC 6BE93F55
     Copy CRC 6BE93F55
     Copy OK
No errors occurred
AccurateRip summary
Track  1  not present in database
Track  2  not present in database
Track  3  not present in database
Track  4  not present in database
Track  5  not present in database
Track  6  not present in database
Track  7  not present in database
Track  8  not present in database
Track  9  not present in database
Track 10  not present in database
None of the tracks are present in the AccurateRip database
End of status report

Folder.auCDtect

Код:
-----------------------
DON'T MODIFY THIS FILE
-----------------------
PERFORMER: auCDtect Task Manager, ver. 1.5.1RC4 build 1.5.1.5
Copyright (c) 2008-2010 y-soft. All rights reserved
http://y-soft.org
ANALYZER: auCDtect: CD records authenticity detector, version 0.8.2
Copyright (c) 2004 Oleg Berngardt. All rights reserved.
Copyright (c) 2004 Alexander Djourik. All rights reserved.
FILE: Wishbone Ash - The Power Of Eternity.flac
  Size: 357572524 Hash: 2D4069878320C8D02344C3AEB139DA5B Accuracy: -m0
  Conclusion: CDDA 99%
  Signature: AAB7B8F862840DA8D0ECFDA109BE87BF1AE75AF1

2007 - First Light (Talking Elephant TECD108&#41;

Продолжительность: 00:40:16
Треклист:
01. Lady Whiskey (3:12)
02. Roads of Day to Day (5:51)
03. Blind Eye (3:35)
04. Joshua (2:13)
05. Queen of Torture (3:10)
06. Alone (3:10)
07. Handy (12:41)
08. Errors of My Way (6:24)

Лог EAC

Код:
Exact Audio Copy V0.99 prebeta 3 from 28. July 2007
EAC extraction logfile from 7. September 2007, 13:22
Wishbone Ash / First Light
Used drive  : LITE-ON DVDRW LH-20A1P   Adapter: 0  ID: 2
Read mode               : Secure
Utilize accurate stream : Yes
Defeat audio cache      : Yes
Make use of C2 pointers : No
Read offset correction                      : 6
Overread into Lead-In and Lead-Out          : No
Fill up missing offset samples with silence : Yes
Delete leading and trailing silent blocks   : No
Null samples used in CRC calculations       : Yes
Used interface                              : Installed external ASPI interface
Used output format : Internal WAV Routines
Sample format      : 44.100 Hz; 16 Bit; Stereo
TOC of the extracted CD
     Track |   Start  |  Length  | Start sector | End sector
    ---------------------------------------------------------
        1  |  0:00.00 |  3:11.69 |         0    |    14393
        2  |  3:11.69 |  5:51.08 |     14394    |    40726
        3  |  9:03.02 |  3:35.06 |     40727    |    56857
        4  | 12:38.08 |  2:13.32 |     56858    |    66864
        5  | 14:51.40 |  3:09.47 |     66865    |    81086
        6  | 18:01.12 |  3:09.60 |     81087    |    95321
        7  | 21:10.72 | 12:41.30 |     95322    |   152426
        8  | 33:52.27 |  6:24.27 |    152427    |   181253
Range status and errors
Selected range
     Filename D:\flogger77\Wishbone Ash - First Light.wav
     Peak level 99.6 %
     Range quality 100.0 %
     Copy CRC 65B86E20
     Copy OK
No errors occurred
End of status report

Folder.auCDtect

Код:
-----------------------
DON'T MODIFY THIS FILE
-----------------------
PERFORMER: auCDtect Task Manager, ver. 1.5.1RC4 build 1.5.1.5
Copyright (c) 2008-2010 y-soft. All rights reserved
http://y-soft.org
ANALYZER: auCDtect: CD records authenticity detector, version 0.8.2
Copyright (c) 2004 Oleg Berngardt. All rights reserved.
Copyright (c) 2004 Alexander Djourik. All rights reserved.
FILE: Wishbone Ash - First Light.flac
  Size: 264390316 Hash: 43741D6FDB234B1110BE7CEF68A44D1B Accuracy: -m0
  Conclusion: CDDA 100%
  Signature: BA38D2CAC3950FD369D5D660394DB408EBB6AD7E

2011 - Elegant Stealth (ZYX MUSIC GCR 20066-2&#41;

Продолжительность: 01:05:58
Треклист:
01. Reason To Believe (4:22)
02. Warm Tears (5:03)
03. Man With No Name (4:18)
04. Can't Go It Alone (5:39)
05. Give It Up (5:07)
06. Searching For Satellites (6:02)
07. Heavy Weather (6:41)
08. Mud-slick (4:15)
09. Big Issues (7:43)
10. Migrant Worker (5:13)
11. Invisible Thread (11:35)

Лог EAC

Код:
Exact Audio Copy V1.0 beta 3 from 29. August 2011
EAC extraction logfile from 27. March 2012, 23:56
Wishbone Ash / Elegant Stealth
Used drive  : SlimtypeDVD A  DS8A5SH   Adapter: 0  ID: 1
Read mode               : Secure
Utilize accurate stream : Yes
Defeat audio cache      : Yes
Make use of C2 pointers : No
Read offset correction                      : 6
Overread into Lead-In and Lead-Out          : No
Fill up missing offset samples with silence : Yes
Delete leading and trailing silent blocks   : No
Null samples used in CRC calculations       : Yes
Used interface                              : Native Win32 interface for Win NT & 2000
Used output format              : User Defined Encoder
Selected bitrate                : 320 kBit/s
Quality                         : High
Add ID3 tag                     : No
Command line compressor         : C:\Program Files (x86)\Exact Audio Copy\Flac\flac.exe
Additional command line options : -V -8 -T "Date=%year%" -T "Genre=%genre%" %source%
TOC of the extracted CD
     Track |   Start  |  Length  | Start sector | End sector
    ---------------------------------------------------------
        1  |  0:00.00 |  4:21.67 |         0    |    19641
        2  |  4:21.67 |  5:02.67 |     19642    |    42358
        3  |  9:24.59 |  4:18.37 |     42359    |    61745
        4  | 13:43.21 |  5:39.30 |     61746    |    87200
        5  | 19:22.51 |  5:07.04 |     87201    |   110229
        6  | 24:29.55 |  6:02.21 |    110230    |   137400
        7  | 30:32.01 |  6:40.44 |    137401    |   167444
        8  | 37:12.45 |  4:14.52 |    167445    |   186546
        9  | 41:27.22 |  7:42.41 |    186547    |   221237
       10  | 49:09.63 |  5:13.36 |    221238    |   244748
       11  | 54:23.24 | 11:34.61 |    244749    |   296859
Range status and errors
Selected range
     Filename D:\My Music\Wishbone Ash - 2011 Elegant Stealth\Wishbone Ash - Elegant Stealth.wav
     Peak level 98.8 %
     Extraction speed 4.8 X
     Range quality 100.0 %
     Test CRC 7BB18E4F
     Copy CRC 7BB18E4F
     Copy OK
No errors occurred
AccurateRip summary
Track  1  accurately ripped (confidence 3)  [A614D569]  (AR v1)
Track  2  accurately ripped (confidence 3)  [5008F95A]  (AR v1)
Track  3  accurately ripped (confidence 3)  [EF20946A]  (AR v1)
Track  4  accurately ripped (confidence 3)  [533EB52A]  (AR v1)
Track  5  accurately ripped (confidence 3)  [EB920A32]  (AR v1)
Track  6  accurately ripped (confidence 3)  [EA9AA341]  (AR v1)
Track  7  accurately ripped (confidence 3)  [33209938]  (AR v1)
Track  8  accurately ripped (confidence 3)  [84940749]  (AR v1)
Track  9  accurately ripped (confidence 3)  [D44B4F60]  (AR v1)
Track 10  accurately ripped (confidence 3)  [44F93704]  (AR v1)
Track 11  accurately ripped (confidence 3)  [721DAECB]  (AR v1)
All tracks accurately ripped
End of status report
==== Log checksum 1240BCAA394A6621E11165684638F34FAC42D69A9F62D0A36A9E6AEEAD5E42C1 ====

Folder.auCDtect

Код:
-----------------------
DON'T MODIFY THIS FILE
-----------------------
PERFORMER: auCDtect Task Manager, ver. 1.5.1RC4 build 1.5.1.5
Copyright (c) 2008-2010 y-soft. All rights reserved
http://y-soft.org
ANALYZER: auCDtect: CD records authenticity detector, version 0.8.2
Copyright (c) 2004 Oleg Berngardt. All rights reserved.
Copyright (c) 2004 Alexander Djourik. All rights reserved.
FILE: Wishbone Ash - Elegant Stealth.flac
  Size: 469544397 Hash: AD0A3DB1BCF298E598D21D7DD5DA8310 Accuracy: -m0
  Conclusion: CDDA 100%
  Signature: 00661E094093D48888AE6C20449C53F6BFA39F10
Other forum [Profile] [PM]

Omen ®

Longevity: 6 years 7 months

Posts: 181101

Торрент-статистика

Post 01-Jun-2013 22:17 (after 4 months 10 days)

[Quote]

oldq, Раздача обновлена
Other forum [Profile] [PM]

Dracula

Longevity: 5 years 8 months

Posts: 10330

Торрент-статистика

Post 04-Jun-2013 05:21 (after 2 days 7 hours)

Топик был перенесен из форума Rock в форум Rock


p2000s
 

sergevlad

Longevity: 5 years 5 months

Posts: 2

Торрент-статистика

Post 11-Jun-2014 18:59 (after 1 year)

[Quote]

Парни, встаньте плииииз на раздачу
Other forum [Profile] [PM]

qold

Longevity: 4 years 9 months

Posts: 2

Торрент-статистика

Post 29-Aug-2014 16:45 (after 2 months 17 days)

[Quote]

что-то не то... в торренте mp3... скачал неглядя четыре альбома, блин
Other forum [Profile] [PM]

Dracula

Longevity: 5 years 8 months

Posts: 10330

Торрент-статистика

Post 29-Aug-2014 16:46 (after 54 seconds)

Топик был перенесен из форума Rock в форум Rock


Геннадич
 

qold

Longevity: 4 years 9 months

Posts: 2

Торрент-статистика

Post 29-Aug-2014 17:00 (after 15 minutes)

[Quote]

"Топик был перенесен из форума Rock в форум Rock
Геннадич"
это вы тут так прикалываетесь...?
Other forum [Profile] [PM]
Display posts from previous:    
Reply to topic

The time now is: Today 16:07

All times are GMT + 3 Hours



You cannot post new topics in this forum
You cannot reply to topics in this forum
You cannot edit your posts in this forum
You cannot delete your posts in this forum
You cannot vote in polls in this forum
You cannot attach files in this forum
You cannot download files in this forum