Today is a free download without charge Download

Kenny Drew Trio - with Paul Chambers, Philly Joe Jones (2003) [FLAC|Lossless]<Jazz, Hard Bop, Piano Jazz>

Reply to topic
 
Author
Message

sashau ®

Gender:

Longevity: 7 years 11 months

Posts: 3497

Торрент-статистика

Post 06-Dec-2014 14:43

[Quote]

Kenny Drew Trio - with Paul Chambers, Philly Joe Jones - Год: 2003
Год записи: 1956
Жанр: Jazz, Hard Bop, Piano Jazz
Продолжительность: 00:42:26
Кодек: FLAC (tracks+.cue)
Битрейт: Lossless
Источник: Собственный рип
Издатель (лейбл): Riverside / Пар Медиа Мьюзик
Номер по каталогу: ZZ-56/04GP0001614
Страна-производитель диска: Russia
Наличие сканов в содержимом раздачи: да
Треклист:
01. Caravan [04:52]
02. Come Rain Or Come Shine [06:04]
03. Ruby My Dear [05:41]
04. Weird-O [04:02]
05. Taking A Chance On Love [04:38]
06. When You Wish Upon A Star [05:15]
07. Blues For Nica [05:26]
08. It's Only A Paper Moon [06:23]

Отчёт ЕАС&#58;

Код:
Exact Audio Copy V1.0 beta 3 from 29. August 2011
EAC extraction logfile from 6. December 2014, 10:11
Kenny Drew Trio / Kenny Drew Trio
Used drive  : ATAPI   iHAS124   D   Adapter: 1  ID: 0
Read mode               : Secure
Utilize accurate stream : Yes
Defeat audio cache      : Yes
Make use of C2 pointers : No
Read offset correction                      : 6
Overread into Lead-In and Lead-Out          : No
Fill up missing offset samples with silence : Yes
Delete leading and trailing silent blocks   : No
Null samples used in CRC calculations       : Yes
Used interface                              : Native Win32 interface for Win NT & 2000
Gap handling                                : Appended to previous track
Used output format              : User Defined Encoder
Selected bitrate                : 128 kBit/s
Quality                         : High
Add ID3 tag                     : No
Command line compressor         : C:\Program Files (x86)\Exact Audio Copy\Flac\flac.exe
Additional command line options : -V -8 -T "Genre=%genre%" -T "Artist=%artist%" -T "Title=%title%" -T "Album=%albumtitle%" -T "Date=%year%" -T "Tracknumber=%tracknr%" -T "Comment=%comment%" %source%
TOC of the extracted CD
     Track |   Start  |  Length  | Start sector | End sector
    ---------------------------------------------------------
        1  |  0:00.37 |  4:52.65 |        37    |    22001
        2  |  4:53.27 |  6:04.65 |     22002    |    49366
        3  | 10:58.17 |  5:41.70 |     49367    |    75011
        4  | 16:40.12 |  4:02.38 |     75012    |    93199
        5  | 20:42.50 |  4:38.70 |     93200    |   114119
        6  | 25:21.45 |  5:15.20 |    114120    |   137764
        7  | 30:36.65 |  5:26.47 |    137765    |   162261
        8  | 36:03.37 |  6:23.30 |    162262    |   191016
Track  1
     Filename D:\Трeкeр\Kenny Drew Trio - with Paul Chambers, Philly Joe Jones (2003)\01. Caravan.wav
     Pre-gap length  0:00:02.37
     Peak level 100.0 %
     Extraction speed 5.4 X
     Track quality 100.0 %
     Test CRC 80FE7CEF
     Copy CRC 80FE7CEF
     Cannot be verified as accurate (confidence 6)  [2A0CA240], AccurateRip returned [63A696E7]  (AR v2)
     Copy OK
Track  2
     Filename D:\Трeкeр \Kenny Drew Trio - with Paul Chambers, Philly Joe Jones (2003)\02. Come Rain Or Come Shine.wav
     Pre-gap length  0:00:02.36
     Peak level 100.0 %
     Extraction speed 5.9 X
     Track quality 99.9 %
     Test CRC C83F9594
     Copy CRC C83F9594
     Cannot be verified as accurate (confidence 6)  [C036F3C1], AccurateRip returned [63071FBC]  (AR v2)
     Copy OK
Track  3
     Filename D:\Трeкeр \Kenny Drew Trio - with Paul Chambers, Philly Joe Jones (2003)\03. Ruby My Dear.wav
     Pre-gap length  0:00:02.36
     Peak level 81.8 %
     Extraction speed 6.5 X
     Track quality 99.9 %
     Test CRC 668CD8ED
     Copy CRC 668CD8ED
     Cannot be verified as accurate (confidence 6)  [9E7AB8D6], AccurateRip returned [D6AFE0CF]  (AR v2)
     Copy OK
Track  4
     Filename D:\Трeкeр \Kenny Drew Trio - with Paul Chambers, Philly Joe Jones (2003)\04. Weird-O.wav
     Pre-gap length  0:00:02.36
     Peak level 100.0 %
     Extraction speed 7.4 X
     Track quality 100.0 %
     Test CRC 445204DA
     Copy CRC 445204DA
     Cannot be verified as accurate (confidence 6)  [8AB79483], AccurateRip returned [29A36952]  (AR v2)
     Copy OK
Track  5
     Filename D:\Трeкeр \Kenny Drew Trio - with Paul Chambers, Philly Joe Jones (2003)\05. Taking A Chance On Love.wav
     Pre-gap length  0:00:02.37
     Peak level 100.0 %
     Extraction speed 8.0 X
     Track quality 100.0 %
     Test CRC 2B1F7CCC
     Copy CRC 2B1F7CCC
     Cannot be verified as accurate (confidence 6)  [C0523F89], AccurateRip returned [B2A73758]  (AR v2)
     Copy OK
Track  6
     Filename D:\Трeкeр \Kenny Drew Trio - with Paul Chambers, Philly Joe Jones (2003)\06. When You Wish Upon A Star.wav
     Pre-gap length  0:00:02.37
     Peak level 65.5 %
     Extraction speed 8.6 X
     Track quality 100.0 %
     Test CRC 355EAB0C
     Copy CRC 355EAB0C
     Cannot be verified as accurate (confidence 6)  [40F5A2F0], AccurateRip returned [A50320FD]  (AR v2)
     Copy OK
Track  7
     Filename D:\Трeкeр \Kenny Drew Trio - with Paul Chambers, Philly Joe Jones (2003)\07. Blues For Nica.wav
     Pre-gap length  0:00:02.37
     Peak level 84.6 %
     Extraction speed 9.0 X
     Track quality 100.0 %
     Test CRC BE39A9B9
     Copy CRC BE39A9B9
     Cannot be verified as accurate (confidence 6)  [1F84A3F2], AccurateRip returned [65CA868A]  (AR v2)
     Copy OK
Track  8
     Filename D:\Трeкeр \Kenny Drew Trio - with Paul Chambers, Philly Joe Jones (2003)\08. It's Only A Paper Moon.wav
     Pre-gap length  0:00:02.36
     Peak level 95.3 %
     Extraction speed 9.7 X
     Track quality 100.0 %
     Test CRC C24CD941
     Copy CRC C24CD941
     Cannot be verified as accurate (confidence 6)  [F3980E14], AccurateRip returned [FCA9495C]  (AR v2)
     Copy OK
No tracks could be verified as accurate
You may have a different pressing from the one(s) in the database
No errors occurred
End of status report
==== Log checksum C49747E4924381FB843095668E9268718AEC05B60FFB0A4511608EB6854547E9 ====

Отчёт auCDtect Task manager&#58;

Код:
-----------------------
DON'T MODIFY THIS FILE
-----------------------
PERFORMER: auCDtect Task Manager, ver. 1.6.0 RC1 build 1.6.0.1
Copyright (c) 2008-2010 y-soft. All rights reserved
http://y-soft.org
ANALYZER: auCDtect: CD records authenticity detector, version 0.8.2
Copyright (c) 2004 Oleg Berngardt. All rights reserved.
Copyright (c) 2004 Alexander Djourik. All rights reserved.
FILE: 08. It's Only A Paper Moon.flac
  Size: 40416247 Hash: 178F0FCA8D8B669951ABBC1EF5B21006 Accuracy: -m0
  Conclusion: CDDA 100%
  Signature: 1E6E2251E838FB7741B63A421BE2A95DDCA57FA9
FILE: 07. Blues For Nica.flac
  Size: 31397156 Hash: 15E330A3CE2885FFB11B520FAAE1D2AB Accuracy: -m0
  Conclusion: CDDA 100%
  Signature: 860338DEE694ED7A3E6B2537AC9D06E5C5B8F05A
FILE: 06. When You Wish Upon A Star.flac
  Size: 26322967 Hash: 411F40EDA5DC23109ED0DD7377229EC8 Accuracy: -m0
  Conclusion: CDDA 100%
  Signature: 36E84257B7EA349AE1CC7D922DFBB57521555002
FILE: 05. Taking A Chance On Love.flac
  Size: 28866721 Hash: 1B45BDAF665F4668FB437926C9EAE364 Accuracy: -m0
  Conclusion: CDDA 100%
  Signature: 62543580BAB9E09E31443ABF52316885855B4599
FILE: 04. Weird-O.flac
  Size: 23306014 Hash: 40B56E3126E3B3F65C8CBF74B1348B59 Accuracy: -m0
  Conclusion: CDDA 100%
  Signature: CCF4494C2278C006CAC1C01616575CB2B387C9EE
FILE: 03. Ruby My Dear.flac
  Size: 26229798 Hash: FD126A77C78F19BA83DE670A2F571AA2 Accuracy: -m0
  Conclusion: CDDA 100%
  Signature: 6B5D4D1D405AFEBACB5FB7DB43C4E5AD1EF3CD78
FILE: 02. Come Rain Or Come Shine.flac
  Size: 31518554 Hash: 67D54033A4ED1E94A61BB6DA95357EDF Accuracy: -m0
  Conclusion: CDDA 100%
  Signature: 1E8CBB0D8A4743C5FD3C29E2C569B56416FAE591
FILE: 01. Caravan.flac
  Size: 26172427 Hash: 89D4C486A2651CAFD7725479037DC390 Accuracy: -m0
  Conclusion: CDDA 100%
  Signature: 33F955D8FE4C079DB06A4F18997629F436867FDC

Содержание индексной карты (.CUE&#41;

Код:
REM GENRE Jazz
REM DATE 2003
REM DISCID 5909F208
REM COMMENT "ExactAudioCopy v1.0b3"
PERFORMER "Kenny Drew Trio"
TITLE "Kenny Drew Trio"
FILE "01. Caravan.wav" WAVE
  TRACK 01 AUDIO
    TITLE "Caravan"
    PERFORMER "Kenny Drew Trio"
    PREGAP 00:00:37
    INDEX 01 00:00:00
  TRACK 02 AUDIO
    TITLE "Come Rain Or Come Shine"
    PERFORMER "Kenny Drew Trio"
    INDEX 00 04:50:29
FILE "02. Come Rain Or Come Shine.wav" WAVE
    INDEX 01 00:00:00
  TRACK 03 AUDIO
    TITLE "Ruby My Dear"
    PERFORMER "Kenny Drew Trio"
    INDEX 00 06:02:29
FILE "03. Ruby My Dear.wav" WAVE
    INDEX 01 00:00:00
  TRACK 04 AUDIO
    TITLE "Weird-O"
    PERFORMER "Kenny Drew Trio"
    INDEX 00 05:39:34
FILE "04. Weird-O.wav" WAVE
    INDEX 01 00:00:00
  TRACK 05 AUDIO
    TITLE "Taking A Chance On Love"
    PERFORMER "Kenny Drew Trio"
    INDEX 00 04:00:01
FILE "05. Taking A Chance On Love.wav" WAVE
    INDEX 01 00:00:00
  TRACK 06 AUDIO
    TITLE "When You Wish Upon A Star"
    PERFORMER "Kenny Drew Trio"
    INDEX 00 04:36:33
FILE "06. When You Wish Upon A Star.wav" WAVE
    INDEX 01 00:00:00
  TRACK 07 AUDIO
    TITLE "Blues For Nica"
    PERFORMER "Kenny Drew Trio"
    INDEX 00 05:12:58
FILE "07. Blues For Nica.wav" WAVE
    INDEX 01 00:00:00
  TRACK 08 AUDIO
    TITLE "It's Only A Paper Moon"
    PERFORMER "Kenny Drew Trio"
    INDEX 00 05:24:11
FILE "08. It's Only A Paper Moon.wav" WAVE
    INDEX 01 00:00:00

Состав

Kenny Drew - piano
Paul Chambers - bass
Philly Joe Jones - drums
Other forum [Profile] [PM]
Display posts from previous:    
Reply to topic

The time now is: Today 13:59

All times are GMT + 3 Hours



You cannot post new topics in this forum
You cannot reply to topics in this forum
You cannot edit your posts in this forum
You cannot delete your posts in this forum
You cannot vote in polls in this forum
You cannot attach files in this forum
You cannot download files in this forum