Today is a free download without charge Download

Евгений Гилев | Программирование в 1С 8.3 — за 21 день! (2014) PCRec

Reply to topic
 
Author
Message

Omen ®

Longevity: 6 years 6 months

Posts: 181112

Торрент-статистика

Post 01-Feb-2015 22:10

[Quote]

Евгений Гилев
Программирование в 1С 8.3 — за 21 день! (2014)
- Автор (режиссер): Евгений Гилев
Жанр: 1С, программирование
Продолжительность: 20:03:55
Качество видео: PCRec
Видеокодек: TechSmith
Битрейт видео: ~16 kb/s
Размер кадра: 1280х720
Аудиокодек: MPEG-1 Audio
Битрейт аудио: 96,0 kb/s, 1 Ch, 44100 Hz
Описание:
21 - дневный видеокурс, в котором Вас научат программировать в 1С 8.3. Вы "с нуля" разработаете полноценное прикладное торговое решение в новой версии 1С 8.3.
Всего за три недели Вы разработаете с нуля систему учета для торгово-сервисной компании.
  • На самой актуальной редакции - 8.3, интерфейс "Такси"
  • 20 часов видео-уроков
  • Оперативный и Бухгалтерский учет, Расчет зарплаты
  • Задачи и Бизнес-процессы
  • Своя система CRM (мониторинг работы с клиентами)

Мы с Вами изучим все основные механизмыплатформы 1С 8.3:

Оперативный учет
Будет построена достаточно сложная конфигурация:
  • Заказы, статусы
  • Закупки, продажи, контроль
  • Расчет себестоимости, регламентные процедуры
Бухгалтерский учет
Добавим механизмы бухгалтерского учета:
  • Проводки у оперативных докуметов — реализация, поступление, документы расчетов
  • Документ «Бухгалтерская операция»
  • Управленческий баланс
  • Операция закрытия месяца
Бизнес-процессы и задачи
Создаем линейные и циклические бизнес-процессы на примере:
  • Бизнес-процесс «Прием сотрудника на работу»
  • Бизнес-процесс «Продажа»
Расчет заработной платы
Добавляем расчет заработной платы:
  • Расчет оклада с учетом отработанного времени
  • Создается график работы
  • Фиксируются невыходы, прогулы
  • Рассчитывается премия по базе (можно задавать разные базовые виды расчета, разные проценты для премии)
  • Выплата заработной платы
Отчеты и СКД
Наиболее интересные для предприятия отчеты:
  • Остатки товаров
  • Данные о продаже и выручке,
  • Себестоимость, прибыль (в табличном виде и в виде диаграммы)
  • Данные по взаиморасчетам с нашими клиентами
  • Валовая прибыль в виде диаграммы
  • Отчет «Эффективность работы менеджеров» — сколько заказов ввел менеджер, прибыль, полученная сотрудником
  • ABC-классификация / сегментация клиентов
  • Бухгалтерский баланс
  • Отчет по начислениям сотрудников
  • Отработанное время (диаграмма Гантта)

MediaInfo:

Общее
Полное имя : nnm\Евгений Гилев — Программирование в 1С 8.3 - за 21 день\1C-Programmer-21day-Day01\1C-Programmer-21day-Day00-part00.avi
Формат : AVI
Формат/Информация : Audio Video Interleave
Размер файла : 686 Кбайт
Продолжительность : 40 с.
Общий поток : 138 Кбит/сек
Видео
Идентификатор : 0
Формат : TechSmith
Идентификатор кодека : tscc
Идентификатор кодека/Информация : TechSmith Screen Capture
Продолжительность : 40 с.
Битрейт : 16,0 Кбит/сек
Ширина : 1280 пикселей
Высота : 720 пикселей
Соотношение сторон : 16:9
Частота кадров : 3,000 кадра/сек
Бит/(Пиксели*Кадры) : 0.006
Размер потока : 79,7 Кбайт (12%)
Аудио
Идентификатор : 1
Формат : MPEG Audio
Версия формата : Version 1
Профиль формата : Layer 3
Идентификатор кодека : 55
Идентификатор кодека/Подсказка : MP3
Продолжительность : 40 с.
Вид битрейта : Постоянный
Битрейт : 96,0 Кбит/сек
Каналы : 1 канал
Частота : 44,1 КГц
Метод сжатия : С потерями
Размер потока : 476 Кбайт (69%)
Выравнивание : Разделение по промежуткам
Продолжительность промежутка : 992 мс. (2,98 видеокадра)
Время предзагрузки промежутка : 750 мс.
Скриншоты:        
Other forum [Profile] [PM]
Similar theme
Forum Topic Author Torrent Replies Last Post
./templates/default/images/folder_dl.gif Обучающее видео Евгений Попов | Настройка и оптимизация Windows 10 (2017) PCRec Omen
2 | 0

0 | 3437

85

2016-03-09 18:12
Omen Latest
./templates/default/images/folder_dl.gif Новинки (HD|DVD|BD|WEB|TV|SAT|PDTV|-Rip) Гости (Евгений Абызов) [2018 г., ужасы, триллер, WEB-DLRip ] iTunes kilmister777
1 | 0

0 | 1026

1

2019-04-29 10:06
kilmister777 Latest
Display posts from previous:    
Reply to topic

The time now is: Today 06:09

All times are GMT + 3 Hours



You cannot post new topics in this forum
You cannot reply to topics in this forum
You cannot edit your posts in this forum
You cannot delete your posts in this forum
You cannot vote in polls in this forum
You cannot attach files in this forum
You cannot download files in this forum