Today is a free download without charge Download

Igor Butman (Игорь Бутман) - Falling Out (1993) [APE|Lossless]<Jazz, Post-Bop, Mainstream Jazz>

Reply to topic
 
Author
Message

sashau ®

Gender:

Longevity: 7 years 11 months

Posts: 3497

Торрент-статистика

Post 11-Feb-2015 19:53

[Quote]

Igor Butman (Игорь Бутман) - Falling Out - Год: 1993
Жанр: Jazz, Post-Bop, Mainstream Jazz
Продолжительность: 01:05:36
Кодек: APE (image+.cue)
Битрейт: Lossless
Источник (релизер): Собственный рип
Издатель (лейбл): Impromptu Records
Номер по каталогу: IMP-1031
Страна-производитель диска: USA
Наличие сканов в содержимом раздачи: да
Треклист:
01. Strange and Beautiful Siberia [08:11]
02. Samba de Igor [07:38]
03. It Could Be Cool [06:18]
04. Siberian Monk [05:34]
05. Peace [06:32]
06. Letter From Pat [06:10]
07. Falling Out [06:23]
08. KLMFK On The Fly [08:42]
09. Polushko Polye [07:09]
10. My One and Only Love [03:03]

Отчёт ЕАС&#58;

Код:
Exact Audio Copy V1.0 beta 3 from 29. August 2011
Отчёт EAC об извлечении, выполненном 3. мая 2012, 16:06
Igor Butman / Falling Out
Дисковод: Optiarc DVD RW AD-5200A   Adapter: 0  ID: 1
Режим чтения                 : Достоверность
Использование точного потока : Да
Отключение кэша аудио        : Да
Использование указателей C2  : Нет
Коррекция смещения при чтении                     : 48
Способность читать области Lead-in и Lead-out     : Нет
Заполнение пропущенных сэмплов тишиной            : Да
Удаление блоков с тишиной в начале и конце        : Нет
При вычислениях CRC использовались нулевые сэмплы : Да
Интерфейс                                         : Встроенный Win32-интерфейс для Win NT/2000
Выходной формат          : Пользовательский кодировщик
Выбранный битрейт        : 128 kBit/s
Качество                 : Высокий
Добавление ID3-тега      : Нет
Утилита сжатия           : F:\Program Files\Monkey's Audio\wapet.exe
Дополнительные параметры : %dest% -t "Genre=%genre%" -t "Artist=%artist%" -t "Title=%title%" -t "Album=%albumtitle%" -t "Year=%year%" -t "Track=%tracknr%" -t "Comment=%comment%" mac.exe %source% %dest% -c3000
TOC извлечённого CD
     Трек |   Старт  | Длительность | Начальный сектор | Конечный сектор
    ---------------------------------------------------------------------
       1  |  0:00.50 |    8:10.32   |          50      |      36831
       2  |  8:11.07 |    7:37.03   |       36832      |      71109
       3  | 15:48.10 |    6:17.65   |       71110      |      99449
       4  | 22:06.00 |    5:33.40   |       99450      |     124464
       5  | 27:39.40 |    6:31.42   |      124465      |     153831
       6  | 34:11.07 |    6:09.55   |      153832      |     181561
       7  | 40:20.62 |    6:22.30   |      181562      |     210241
       8  | 46:43.17 |    8:41.38   |      210242      |     249354
       9  | 55:24.55 |    7:08.30   |      249355      |     281484
      10  | 62:33.10 |    3:02.65   |      281485      |     295199
Характеристики диапазона извлечения и сообщения об ошибках
Выбранный диапазон
     Имя файла F:\1993.Igor Butman - Falling Out\Igor Butman - Falling Out.wav
     Пиковый уровень 98.4 %
     Скорость извлечения 4.1 X
     Качество диапазона 100.0 %
     CRC теста 17E23712
     CRC копии 17E23712
     Копирование... OK
Ошибок не произошло
AccurateRip: сводка
Трек  1  отсутствует в базе данных
Трек  2  отсутствует в базе данных
Трек  3  отсутствует в базе данных
Трек  4  отсутствует в базе данных
Трек  5  отсутствует в базе данных
Трек  6  отсутствует в базе данных
Трек  7  отсутствует в базе данных
Трек  8  отсутствует в базе данных
Трек  9  отсутствует в базе данных
Трек 10  отсутствует в базе данных
Ни одного трека нет в базе AccurateRip
Конец отчёта
==== Контрольная сумма отчёта 6F1F88C61EEBF3F81C712C52E4419E62F413F9EED40923A571C8B47F13C09F30 ====

Отчёт auCDtect Task manager&#58;

Код:
-----------------------
DON'T MODIFY THIS FILE
-----------------------
PERFORMER: auCDtect Task Manager, ver. 1.6.0 RC1 build 1.6.0.1
Copyright (c) 2008-2010 y-soft. All rights reserved
http://y-soft.org
ANALYZER: auCDtect: CD records authenticity detector, version 0.8.2
Copyright (c) 2004 Oleg Berngardt. All rights reserved.
Copyright (c) 2004 Alexander Djourik. All rights reserved.
FILE: Igor Butman - Falling Out.ape
  Size: 419029209 Hash: BFDEB164B18F15C31950CC80F6D4528A Accuracy: -m0
  Conclusion: CDDA 100%
  Signature: 0EF214F18D7D20BB5F2698E448F1F974F92879AB

Содержание индексной карты (.CUE&#41;

Код:
REM GENRE Jazz
REM DATE 1993
REM DISCID 810F600A
REM COMMENT "ExactAudioCopy v1.0b3"
PERFORMER "Igor Butman"
TITLE "Falling Out"
FILE "Igor Butman - Falling Out.ape" WAVE
  TRACK 01 AUDIO
    TITLE "Strange and Beautiful Siberia"
    PERFORMER "Igor Butman"
    INDEX 00 00:00:00
    INDEX 01 00:00:50
  TRACK 02 AUDIO
    TITLE "Samba de Igor"
    PERFORMER "Igor Butman"
    INDEX 01 08:11:07
  TRACK 03 AUDIO
    TITLE "It Could Be Cool"
    PERFORMER "Igor Butman"
    INDEX 01 15:48:10
  TRACK 04 AUDIO
    TITLE "Siberian Monk"
    PERFORMER "Igor Butman"
    INDEX 01 22:06:00
  TRACK 05 AUDIO
    TITLE "Peace"
    PERFORMER "Igor Butman"
    INDEX 01 27:39:40
  TRACK 06 AUDIO
    TITLE "Letter From Pat"
    PERFORMER "Igor Butman"
    INDEX 01 34:11:07
  TRACK 07 AUDIO
    TITLE "Falling Out"
    PERFORMER "Igor Butman"
    INDEX 01 40:20:62
  TRACK 08 AUDIO
    TITLE "KLMFK On The Fly"
    PERFORMER "Igor Butman"
    INDEX 01 46:43:17
  TRACK 09 AUDIO
    TITLE "Polushko Polye"
    PERFORMER "Igor Butman"
    INDEX 01 55:24:55
  TRACK 10 AUDIO
    TITLE "My One and Only Love"
    PERFORMER "Igor Butman"
    INDEX 01 62:33:10

Состав

Igor Butman - tenor sax, soprano sax
Eddie Gomez - bass
Lyle Mays - piano
Marvin "Smitty" Smith - drums
Other forum [Profile] [PM]
Display posts from previous:    
Reply to topic

The time now is: Today 01:26

All times are GMT + 3 Hours



You cannot post new topics in this forum
You cannot reply to topics in this forum
You cannot edit your posts in this forum
You cannot delete your posts in this forum
You cannot vote in polls in this forum
You cannot attach files in this forum
You cannot download files in this forum