Today is a free download without charge Download

Формула 1 / Formula 1 (Весь сезон 2013) [HDTVRip-AVC 720p 50fps, RUS]

Reply to topic
 
Author
Message

SmartSoft ®

Gender:

Longevity: 5 years 9 months

Posts: 281

Торрент-статистика

Post 14-Feb-2015 13:38

[Quote]

Формула 1 / Formula 1 (Весь сезон 2013)-
Русское название: Формула 1
Оригинальное название: Formula 1
Телекомпания: Спорт 1 HD и SkySports F1HD
Год выпуска: 2013
Жанр: Спорт
Официальный сайт: www.formula1.com
Язык комментариев: Русский (Алексей Попов и Наталья Фабричнова)
Продолжительность:
квалификация ~ 01:30:00 (Live-трансляция, включает пресс-конференцию. Русский комментарий может не соответствовать изображению в паузах между сессиями) гонка ~ 02:30:00 (Live-трансляция)
Описание:
Весь сезон Формулы 1 2013 года. Квалификация + Гонка.
Доп. информация:
Исходник: HDTVRemux [TS/H.264/MP2(AC3), 1920х1080i (16:9), 25.000 fps]
Рип: деинтерлейсер [25i -> 50p]: QTGMC( Preset="Slow" )
Качество видео: HDTVRip
Формат: MKV
Видеокодек: H.264
Битрейт видео: ~7000 Kbps
Размер кадра: 1280x720p (16:9); 50 fps
Аудиокодек: AC3
Битрейт аудио: 192 kbps

MediaInfo

Код:
Общее
Уникальный идентификатор                 : 221424181982223659578594088733428917919 (0xA694BF0A2E5CD722AFE9332AA5BFA69F)
Полное имя                               : I:\Formula 1\Formula 1 2013 Season\06 Гран-при Монако\Монако (гонка) 50fps.mkv
Формат                                   : Matroska
Версия формата                           : Version 4 / Version 2
Размер файла                             : 8,45 Гбайт
Продолжительность                        : 2 ч. 58 м.
Общий поток                              : 6785 Кбит/сек
Дата кодирования                         : UTC 2013-05-29 17:54:53
Программа кодирования                    : mkvmerge v6.1.0 ('Old Devil') built on Mar  2 2013 14:32:37
Библиотека кодирования                   : libebml v1.3.0 + libmatroska v1.4.0
Видео
Идентификатор                            : 1
Формат                                   : AVC
Формат/Информация                        : Advanced Video Codec
Профиль формата                          : [url=mailto:[email protected]][email protected][/url]
Параметр CABAC формата                   : Да
Параметр ReFrames формата                : 4 кадра
Идентификатор кодека                     : V_MPEG4/ISO/AVC
Продолжительность                        : 2 ч. 58 м.
Битрейт                                  : 6458 Кбит/сек
Ширина                                   : 1280 пикселей
Высота                                   : 720 пикселей
Соотношение сторон                       : 16:9
Режим частоты кадров                     : Постоянный
Частота кадров                           : 50,000 кадров/сек
Цветовое пространство                    : YUV
Субдискретизация насыщенности            : 4:2:0
Битовая глубина                          : 8 бит
Тип развёртки                            : Прогрессивная
Бит/(Пиксели*Кадры)                      : 0.140
Размер потока                            : 8,05 Гбайт (95%)
Библиотека кодирования                   : x264 core 115 r1995 c1e60b9
Настройки программы                      : cabac=1 / ref=3 / deblock=1:0:0 / analyse=0x3:0x113 / me=umh / subme=7 / psy=1 / psy_rd=1.00:0.00 / mixed_ref=1 / me_range=24 / chroma_me=1 / trellis=1 / 8x8dct=1 / cqm=0 / deadzone=21,11 / fast_pskip=1 / chroma_qp_offset=-2 / threads=12 / sliced_threads=0 / nr=0 / decimate=1 / interlaced=0 / bluray_compat=0 / constrained_intra=0 / bframes=3 / b_pyramid=2 / b_adapt=1 / b_bias=0 / direct=1 / weightb=1 / open_gop=0 / weightp=2 / keyint=100 / keyint_min=10 / scenecut=40 / intra_refresh=0 / rc_lookahead=40 / rc=crf / mbtree=1 / crf=21.0 / qcomp=0.60 / qpmin=0 / qpmax=69 / qpstep=4 / vbv_maxrate=20000 / vbv_bufsize=25000 / crf_max=0.0 / nal_hrd=none / ip_ratio=1.40 / aq=1:1.00
Язык                                     : English
Default                                  : Да
Forced                                   : Нет
Аудио
Идентификатор                            : 2
Формат                                   : AC-3
Формат/Информация                        : Audio Coding 3
Расширение режима                        : CM (complete main)
Параметр Endianness формата              : Big
Идентификатор кодека                     : A_AC3
Продолжительность                        : 2 ч. 58 м.
Вид битрейта                             : Постоянный
Битрейт                                  : 192 Кбит/сек
Каналы                                   : 2 канала
Расположение каналов                     : Front: L R
Частота                                  : 48,0 КГц
Битовая глубина                          : 16 бит
Метод сжатия                             : С потерями
Размер потока                            : 245 Мбайт (3%)
Заголовок                                : Спорт1
Язык                                     : Russian
Default                                  : Да
Forced                                   : Нет

Состав участников:

Состав участников:
Red Bull Racing: Себастьян Феттель - Марк Уэббер
Scuderia Ferrari: Фернандо Алонсо - Фелипе Масса
Vodafone McLaren Mercedes: Дженсон Баттон - Серхио Перес
Lotus F1 Team: Кими Райкконен - Роман Грожан
Mercedes AMG Petronas Formula 1 Team: Нико Росберг - Льюис Хэмилтон
Sauber F1 Team: Нико Хюлкенберг - Эстебан Гутьеррес
Sahara Force India F1 Team: Пол ди Реста - Адриан Сутил
Williams F1 Team: Пастор Мальдонадо - Валттери Боттас
Scuderia Toro Rosso: Жан-Эрик Вернь - Даниэль Риккардо
Caterham F1 Team: Шарль Пик - Гидо ван дер Гарде
Marussia F1 Team: Жюль Бьянки - Макс Чилтон

Скриншоты:

Скриншоты:
     

_________________


Other forum [Profile] [PM]
Display posts from previous:    
Reply to topic

The time now is: Today 00:29

All times are GMT + 3 Hours



You cannot post new topics in this forum
You cannot reply to topics in this forum
You cannot edit your posts in this forum
You cannot delete your posts in this forum
You cannot vote in polls in this forum
You cannot attach files in this forum
You cannot download files in this forum