Today is a free download without charge Download

(Alternative Rock/Alternative Metal) Egypt Central - White Rabbit - 2011, FLAC (tracks+.cue) lossless

Reply to topic
 
Author
Message

Nugeiro ®

Gender:

Longevity: 9 years 7 months

Posts: 1981

Location: Украина, Шостка

Торрент-статистика

Post 11-Sep-2011 08:55

[Quote]

Egypt Central / White Rabbit
Жанр: Alternative Rock/Alternative Metal
Страна-производитель диска: USA
Год издания диска: 2011
Страна: USA
Аудио кодек: FLAC (*.flac)
Тип рипа: tracks+.cue
Битрейт аудио: lossless
Продолжительность: 00:43:16
Наличие сканов в содержимом раздачи: да
Треклист:
01. Ghost Town (3:45)
02. White Rabbit (3:38)
03. Goodnight (3:45)
04. Kick Ass (3:19)
05. Change (3:40)
06. The Drug (Part One) (3:15)
07. Down In Flames (3:54)
08. Enemy Inside (Part Two) (4:13)
09. Blame (3:19)
10. Dying To Leave (3:27)
11. Surrender (3:02)
12. Backfire (4:06)

Лог создания рипа

Код:
Exact Audio Copy V1.0 beta 1 from 15. November 2010
EAC extraction logfile from 6. July 2011, 23:18
Egypt Central / White Rabbit
Used drive  : Optiarc DVD RW AD-7191A   Adapter: 4  ID: 0
Read mode               : SecureUtilize accurate stream : YesDefeat audio cache      : YesMake use of C2 pointers : No
Read offset correction                      : 6Overread into Lead-In and Lead-Out          : NoFill up missing offset samples with silence : YesDelete leading and trailing silent blocks   : NoNull samples used in CRC calculations       : YesUsed interface                              : Native Win32 interface for Win NT & 2000Gap handling                                : Appended to previous track
Used output format              : User Defined EncoderSelected bitrate                : 1024 kBit/sQuality                         : HighAdd ID3 tag                     : NoCommand line compressor         : C:\Program Files\Exact Audio Copy\Flac\flac.exeAdditional command line options : -V -8 -T "artist=%a" -T "title=%t" -T "album=%g" -T "date=%y" -T "tracknumber=%n" -T "genre=%m" %s
TOC of the extracted CD
Track |   Start  |  Length  | Start sector | End sector    ---------------------------------------------------------        1  |  0:00.00 |  3:44.52 |         0    |    16851        2  |  3:44.52 |  3:37.59 |     16852    |    33185        3  |  7:22.36 |  3:44.66 |     33186    |    50051        4  | 11:07.27 |  3:18.71 |     50052    |    64972        5  | 14:26.23 |  3:40.12 |     64973    |    81484        6  | 18:06.35 |  3:14.59 |     81485    |    96093        7  | 21:21.19 |  3:54.30 |     96094    |   113673        8  | 25:15.49 |  4:13.03 |    113674    |   132651        9  | 29:28.52 |  3:19.31 |    132652    |   147607       10  | 32:48.08 |  3:27.24 |    147608    |   163156       11  | 36:15.32 |  3:01.44 |    163157    |   176775       12  | 39:17.01 |  4:05.65 |    176776    |   195215
Track  1
Filename C:\Documents and Settings\LEXUS\My Documents\My Music\Egypt Central\Egypt Central - White Rabbit FLAC\01 – Ghost Town.wav
Pre-gap length  0:00:02.00
Peak level 96.6 %     Extraction speed 4.4 X     Track quality 100.0 %     Test CRC 351A35A0     Copy CRC 351A35A0     Track not present in AccurateRip database     Copy OK
Track  2
Filename C:\Documents and Settings\LEXUS\My Documents\My Music\Egypt Central\Egypt Central - White Rabbit FLAC\02 – White Rabbit.wav
Peak level 96.6 %     Extraction speed 4.8 X     Track quality 100.0 %     Test CRC CE4203CB     Copy CRC CE4203CB     Track not present in AccurateRip database     Copy OK
Track  3
Filename C:\Documents and Settings\LEXUS\My Documents\My Music\Egypt Central\Egypt Central - White Rabbit FLAC\03 – Goodnight.wav
Peak level 96.6 %     Extraction speed 5.3 X     Track quality 100.0 %     Test CRC C156E678     Copy CRC C156E678     Track not present in AccurateRip database     Copy OK
Track  4
Filename C:\Documents and Settings\LEXUS\My Documents\My Music\Egypt Central\Egypt Central - White Rabbit FLAC\04 – Kick Ass.wav
Peak level 96.6 %     Extraction speed 5.5 X     Track quality 100.0 %     Test CRC B4495B57     Copy CRC B4495B57     Track not present in AccurateRip database     Copy OK
Track  5
Filename C:\Documents and Settings\LEXUS\My Documents\My Music\Egypt Central\Egypt Central - White Rabbit FLAC\05 – Change.wav
Peak level 96.6 %     Extraction speed 4.7 X     Track quality 99.9 %     Test CRC E4565397     Copy CRC E4565397     Track not present in AccurateRip database     Copy OK
Track  6
Filename C:\Documents and Settings\LEXUS\My Documents\My Music\Egypt Central\Egypt Central - White Rabbit FLAC\06 – The Drug (Part One).wav
Peak level 96.6 %     Extraction speed 6.2 X     Track quality 100.0 %     Test CRC 4A7D0B20     Copy CRC 4A7D0B20     Track not present in AccurateRip database     Copy OK
Track  7
Filename C:\Documents and Settings\LEXUS\My Documents\My Music\Egypt Central\Egypt Central - White Rabbit FLAC\07 – Down In Flames.wav
Peak level 96.6 %     Extraction speed 6.6 X     Track quality 100.0 %     Test CRC 4A876AC5     Copy CRC 4A876AC5     Track not present in AccurateRip database     Copy OK
Track  8
Filename C:\Documents and Settings\LEXUS\My Documents\My Music\Egypt Central\Egypt Central - White Rabbit FLAC\08 – Enemy Inside (Part Two).wav
Peak level 96.6 %     Extraction speed 5.7 X     Track quality 99.9 %     Test CRC 6FF9F169     Copy CRC 6FF9F169     Track not present in AccurateRip database     Copy OK
Track  9
Filename C:\Documents and Settings\LEXUS\My Documents\My Music\Egypt Central\Egypt Central - White Rabbit FLAC\09 – Blame.wav
Peak level 96.6 %     Extraction speed 7.1 X     Track quality 100.0 %     Test CRC 2CD26C96     Copy CRC 2CD26C96     Track not present in AccurateRip database     Copy OK
Track 10
Filename C:\Documents and Settings\LEXUS\My Documents\My Music\Egypt Central\Egypt Central - White Rabbit FLAC\10 – Dying To Leave.wav
Peak level 96.6 %     Extraction speed 7.3 X     Track quality 100.0 %     Test CRC 3A4BD517     Copy CRC 3A4BD517     Track not present in AccurateRip database     Copy OK
Track 11
Filename C:\Documents and Settings\LEXUS\My Documents\My Music\Egypt Central\Egypt Central - White Rabbit FLAC\11 – Surrender.wav
Peak level 96.6 %     Extraction speed 7.4 X     Track quality 100.0 %     Test CRC 715F1EDE     Copy CRC 715F1EDE     Track not present in AccurateRip database     Copy OK
Track 12
Filename C:\Documents and Settings\LEXUS\My Documents\My Music\Egypt Central\Egypt Central - White Rabbit FLAC\12 – Backfire.wav
Peak level 96.6 %     Extraction speed 8.0 X     Track quality 100.0 %     Test CRC 3CF98AF8     Copy CRC 3CF98AF8     Track not present in AccurateRip database     Copy OK
None of the tracks are present in the AccurateRip database
No errors occurred
End of status report
[/spoiler]
[spoiler="Содержание индексной карты (.CUE)"]
REM GENRE Alt.Rock/Alt.MetalREM DATE 2011REM DISCID B40A2A0CREM COMMENT "ExactAudioCopy v1.0b1"PERFORMER "Egypt Central"TITLE "White Rabbit"FILE "01 – Ghost Town.wav" WAVE  TRACK 01 AUDIO    TITLE "Ghost Town"    PERFORMER "Egypt Central"    FLAGS DCP    INDEX 01 00:00:00FILE "02 – White Rabbit.wav" WAVE  TRACK 02 AUDIO    TITLE "White Rabbit"    PERFORMER "Egypt Central"    FLAGS DCP    INDEX 01 00:00:00FILE "03 – Goodnight.wav" WAVE  TRACK 03 AUDIO    TITLE "Goodnight"    PERFORMER "Egypt Central"    FLAGS DCP    INDEX 01 00:00:00FILE "04 – Kick Ass.wav" WAVE  TRACK 04 AUDIO    TITLE "Kick Ass"    PERFORMER "Egypt Central"    FLAGS DCP    INDEX 01 00:00:00FILE "05 – Change.wav" WAVE  TRACK 05 AUDIO    TITLE "Change"    PERFORMER "Egypt Central"    FLAGS DCP    INDEX 01 00:00:00FILE "06 – The Drug (Part One).wav" WAVE  TRACK 06 AUDIO    TITLE "The Drug (Part One)"    PERFORMER "Egypt Central"    FLAGS DCP    INDEX 01 00:00:00FILE "07 – Down In Flames.wav" WAVE  TRACK 07 AUDIO    TITLE "Down In Flames"    PERFORMER "Egypt Central"    FLAGS DCP    INDEX 01 00:00:00FILE "08 – Enemy Inside (Part Two).wav" WAVE  TRACK 08 AUDIO    TITLE "Enemy Inside (Part Two)"    PERFORMER "Egypt Central"    FLAGS DCP    INDEX 01 00:00:00FILE "09 – Blame.wav" WAVE  TRACK 09 AUDIO    TITLE "Blame"    PERFORMER "Egypt Central"    FLAGS DCP    INDEX 01 00:00:00FILE "10 – Dying To Leave.wav" WAVE  TRACK 10 AUDIO    TITLE "Dying To Leave"    PERFORMER "Egypt Central"    FLAGS DCP    INDEX 01 00:00:00FILE "11 – Surrender.wav" WAVE  TRACK 11 AUDIO    TITLE "Surrender"    PERFORMER "Egypt Central"    FLAGS DCP    INDEX 01 00:00:00FILE "12 – Backfire.wav" WAVE  TRACK 12 AUDIO    TITLE "Backfire"    PERFORMER "Egypt Central"    FLAGS DCP    INDEX 01 00:00:00
Доп. информация:
http://www.myspace.com/egyptcentral88
http://www.egyptcentral.net/

Об исполнителе (группе)

According to Songfacts, alternative metal band Egypt Central formed on October 2, 2002 in their hometown of Memphis, Tennessee, borrowing their name from one of the toughest roads running through the city. After eight shows they caught the attention of former Lava Records CEO Jason Flom, who offered the band a record deal. Their self-titled debut album was recorded with producer Josh Abraham in Los Angeles.

Об альбоме (сборнике)

White Rabbit is the second studio album by the rock music group Egypt Central, to be released on May 31, 2011. The first single is "White Rabbit", and was released to radio stations on February 15, 2011 and made available on iTunes on March 1, 2011. [1]A 30 seconds preview of the album was posted on the Official Egypt Central Youtube Channel.

Состав

Skidd Mills – producer
Blake "Black" Allison – drums, vocals
Joey Chicago – bass guitar, vocals
John Falls – lead vocals
Jeff James – guitar, vocals

_________________
Other forum [Profile] [PM]
Display posts from previous:    
Reply to topic

The time now is: Today 23:33

All times are GMT + 3 Hours



You cannot post new topics in this forum
You cannot reply to topics in this forum
You cannot edit your posts in this forum
You cannot delete your posts in this forum
You cannot vote in polls in this forum
You cannot attach files in this forum
You cannot download files in this forum