Today is a free download without charge Download

(Post Hardcore) A Day To Remember - Homesick - 2009, FLAC (tracks+.cue), lossless

Reply to topic
 
Author
Message

Nugeiro ®

Gender:

Longevity: 9 years 7 months

Posts: 1981

Location: Украина, Шостка

Торрент-статистика

Post 11-Sep-2011 09:03

[Quote]

A Day To Remember - Homesick
Жанр: Post Hardcore
Год выпуска диска: 2009
Производитель диска: USA
Аудио кодек: FLAC
Тип рипа: tracks+.cue
Битрейт аудио: lossless
Продолжительность: 40:36
Трэклист:
01. The Downfall Of Us All ( 3:29)
02. My Life For Hire ( 3:33)
03. I'm Made Of Wax, Larry, What Are You Made Of? ( 3:00)
04. NJ Legion Iced Tea ( 3:31)
05. Mr. Highway's Thinking About The End ( 4:15)
06. Have Faith In Me ( 3:08)
07. Welcome To My Family ( 3:00)
08. Homesick ( 3:56)
09. Holdin' It Down For The Underground ( 3:23)
10. You Already Know What You Are ( 1:27)
11. Another Song About The Weekend ( 3:45)
12. If It Means A Lot To You ( 4:03)

Отчёт EAC

Код:
Exact Audio Copy V0.99 prebeta 4 from 23. January 2008
EAC extraction logfile from 2. February 2009, 19:03
A Day To Remember / Homesick
Used drive  : HL-DT-STDVDRW  GSA-S10N6   Adapter: 0  ID: 0
Read mode               : SecureUtilize accurate stream : YesDefeat audio cache      : YesMake use of C2 pointers : No
Read offset correction                      : 667Overread into Lead-In and Lead-Out          : NoFill up missing offset samples with silence : YesDelete leading and trailing silent blocks   : NoNull samples used in CRC calculations       : YesUsed interface                              : Installed external ASPI interfaceGap handling                                : Appended to previous track
Used output format              : User Defined EncoderSelected bitrate                : 768 kBit/sQuality                         : HighAdd ID3 tag                     : NoCommand line compressor         : C:\Program Files\Exact Audio Copy\FLAC\FLAC.EXEAdditional command line options : -8 -A tukey(0.25) -A gauss(0.1875) -b 4096 -V -T "artist=%a" -T "title=%t" -T "album=%g" -T "date=%y" -T "tracknumber=%n" -T "genre=%m" %s --sector-align
TOC of the extracted CD
Track |   Start  |  Length  | Start sector | End sector    ---------------------------------------------------------        1  |  0:00.00 |  3:29.07 |         0    |    15681        2  |  3:29.07 |  3:33.60 |     15682    |    31716        3  |  7:02.67 |  3:00.63 |     31717    |    45279        4  | 10:03.55 |  3:31.10 |     45280    |    61114        5  | 13:34.65 |  4:15.62 |     61115    |    80301        6  | 17:50.52 |  3:08.61 |     80302    |    94462        7  | 20:59.38 |  2:59.70 |     94463    |   107957        8  | 23:59.33 |  3:56.46 |    107958    |   125703        9  | 27:56.04 |  3:23.67 |    125704    |   140995       10  | 31:19.71 |  1:27.39 |    140996    |   147559       11  | 32:47.35 |  3:45.49 |    147560    |   164483       12  | 36:33.09 |  4:03.17 |    164484    |   182725
Track  1
Filename C:\FLACS\A Day To Remember - Homesick [FLAC]\01 The Downfall Of Us All.wav
Pre-gap length  0:00:02.00
Peak level 99.1 %     Track quality 100.0 %     Test CRC 65BC744D     Copy CRC 65BC744D     Track not present in AccurateRip database     Copy OK
Track  2
Filename C:\FLACS\A Day To Remember - Homesick [FLAC]\02 My Life For Hire.wav
Peak level 99.1 %     Track quality 100.0 %     Test CRC CD180436     Copy CRC CD180436     Track not present in AccurateRip database     Copy OK
Track  3
Filename C:\FLACS\A Day To Remember - Homesick [FLAC]\03 I'm Made Of Wax, Larry, What Are You Made Of .wav
Peak level 99.1 %     Track quality 100.0 %     Test CRC DDAFF505     Copy CRC DDAFF505     Track not present in AccurateRip database     Copy OK
Track  4
Filename C:\FLACS\A Day To Remember - Homesick [FLAC]\04 NJ Legion Iced Tea.wav
Peak level 99.1 %     Track quality 100.0 %     Test CRC 26148530     Copy CRC 26148530     Track not present in AccurateRip database     Copy OK
Track  5
Filename C:\FLACS\A Day To Remember - Homesick [FLAC]\05 Mr. Highway's Thinking About The End.wav
Peak level 99.1 %     Track quality 100.0 %     Test CRC 990A8B33     Copy CRC 990A8B33     Track not present in AccurateRip database     Copy OK
Track  6
Filename C:\FLACS\A Day To Remember - Homesick [FLAC]\06 Have Faith In Me.wav
Peak level 99.1 %     Track quality 100.0 %     Test CRC A4ED5230     Copy CRC A4ED5230     Track not present in AccurateRip database     Copy OK
Track  7
Filename C:\FLACS\A Day To Remember - Homesick [FLAC]\07 Welcome To The Family.wav
Peak level 99.1 %     Track quality 100.0 %     Test CRC 94924F19     Copy CRC 94924F19     Track not present in AccurateRip database     Copy OK
Track  8
Filename C:\FLACS\A Day To Remember - Homesick [FLAC]\08 Homesick.wav
Peak level 99.1 %     Track quality 100.0 %     Test CRC D0CF9353     Copy CRC D0CF9353     Track not present in AccurateRip database     Copy OK
Track  9
Filename C:\FLACS\A Day To Remember - Homesick [FLAC]\09 Holdin' It Down For The Underground.wav
Peak level 99.1 %     Track quality 99.9 %     Test CRC 5DED4B61     Copy CRC 5DED4B61     Track not present in AccurateRip database     Copy OK
Track 10
Filename C:\FLACS\A Day To Remember - Homesick [FLAC]\10 You Already Know What You Are.wav
Peak level 99.1 %     Track quality 100.0 %     Test CRC 86C2158B     Copy CRC 86C2158B     Track not present in AccurateRip database     Copy OK
Track 11
Filename C:\FLACS\A Day To Remember - Homesick [FLAC]\11 Another Song About The Weekend.wav
Peak level 99.1 %     Track quality 100.0 %     Test CRC FA900E0C     Copy CRC FA900E0C     Track not present in AccurateRip database     Copy OK
Track 12
Filename C:\FLACS\A Day To Remember - Homesick [FLAC]\12 If It Means A Lot To You.wav
Peak level 99.1 %     Track quality 100.0 %     Test CRC 281A73AA     Copy CRC 281A73AA     Track not present in AccurateRip database     Copy OK
None of the tracks are present in the AccurateRip database
No errors occurred
End of status report

_________________
Other forum [Profile] [PM]
Display posts from previous:    
Reply to topic

The time now is: Today 23:17

All times are GMT + 3 Hours



You cannot post new topics in this forum
You cannot reply to topics in this forum
You cannot edit your posts in this forum
You cannot delete your posts in this forum
You cannot vote in polls in this forum
You cannot attach files in this forum
You cannot download files in this forum