Today is a free download without charge Download

Александр Медведев | 10 ноу-хау на съёмке, до которых вы не додумались (2013) PCRec

Reply to topic
 
Author
Message

Omen ®

Longevity: 7 years 2 months

Posts: 181087

Торрент-статистика

Post 03-Apr-2015 20:51

[Quote]

Александр Медведев
10 ноу-хау на съёмке, до которых вы не додумались
- Автор (режиссер): Александр Медведев
Жанр: Фотосъемка
Продолжительность: 04:41:40
Качество видео: PCRec
Видеокодек: AVC
Битрейт видео: ~30 - 781 kbps
Размер кадра: 768х432
Аудиокодек: AAC 2.0
Битрейт аудио: 125 - 129 kbps (CBR), 2 Ch, 44100 Hz
Описание:
Мастер-класс от Fotoshkola.net.
Темы мастер-класса:
Позирование, выбор ракурса, свет, экспозиция и другие моменты;
Как очень сильно облегчить себе жизнь в 10 конкретных советах с подробным разбором;
Как сэкономить себе пару лет хождения по граблям и поднять свой уровень скачком?
Бонус:
Александр Медведев - Системы ценностей и как с ними работать.
Дарья Булавина - Фотографии известных людей.

MediaInfo:

Код:
Общее
Полное имя                               : C:\Медведев А. - 10 ноу-хау на съёмке, до которых вы не додумались - 2013\Бонус\Булавина Д. - Фотографии известных людей.flv
Формат                                   : Flash Video
Размер файла                             : 84,2 Мбайт
Продолжительность                        : 59 м.
Общий поток                              : 198 Кбит/сек
Видео
Формат                                   : AVC
Формат/Информация                        : Advanced Video Codec
Профиль формата                          : [url=mailto:[email protected]][email protected][/url]
Параметр CABAC формата                   : Да
Параметр ReFrames формата                : 1 кадр
Параметр GOP формата                     : M=1, N=60
Идентификатор кодека                     : 7
Продолжительность                        : 59 м.
Битрейт                                  : 781 Кбит/сек
Ширина                                   : 768 пикселей
Высота                                   : 432 пикселя
Соотношение сторон                       : 16:9
Режим частоты кадров                     : Постоянный
Частота кадров                           : 5,000 кадров/сек
Цветовое пространство                    : YUV
Субдискретизация насыщенности            : 4:2:0
Битовая глубина                          : 8 бит
Тип развёртки                            : Прогрессивная
Бит/(Пиксели*Кадры)                      : 0.471
Размер потока                            : 333 Мбайт
Аудио
Формат                                   : AAC
Формат/Информация                        : Advanced Audio Codec
Профиль формата                          : LC
Идентификатор кодека                     : 10
Продолжительность                        : 59 м.
Битрейт                                  : 125 Кбит/сек
Каналы                                   : 2 канала
Расположение каналов                     : Front: L R
Частота                                  : 44,1 КГц
Метод сжатия                             : С потерями
Размер потока                            : 53,2 Мбайт (63%)
Скриншоты:
       

Дополнительные скриншоты:

       
 
Other forum [Profile] [PM]
Similar theme
Forum Topic Author Torrent Replies Last Post
./templates/default/images/folder_dl.gif Журналы и газеты (общий раздел) Домашние пироги и выпечка от Александра Селезнёва - 6 книг [2010-2011, книги, кулинария, PDF] Omen
1 | 0

0 | 3073

8

2011-05-14 10:05
Omen Latest
./templates/default/images/folder_dl.gif Фантастика, фэнтези, ужасы, мистика Махров Алексей, Орлов Борис, Плетнёв Сергей - Вставай, Россия! Десант из будущего [Алекс, 2011 г., 64 kbps, MP3] Omen
1 | 0

0 | 1330

3

2011-09-20 17:07
Omen Latest
./templates/default/images/folder_dl.gif Фантастика, фэнтези, ужасы, мистика Махров Алексей, Орлов Борис - Хозяин земли русской. Третий десант из будущего [Алекс, 2011 г., 64 kbps, MP3] Omen
1 | 0

0 | 1345

1

2011-09-20 17:24
Omen Latest
./templates/default/images/folder_dl.gif Приключения, детектив, боевик, триллер Александр Бушков - Черное Солнце (Серия "Пиранья") [2012] [FB2] Omen
1 | 0

0 | 1660

21

2012-07-29 15:17
Omen Latest
./templates/default/images/folder_dl.gif Художественная литература Пьер Алексис Понсон дю Террайль "Полные похождения Рокамболя" [2010] [FB2] Omen
1 | 0

0 | 1381

2

2012-11-18 18:35
Omen Latest
./templates/default/images/folder_dl.gif Фильмы 2001-2010 Новая земля (Александр Мельник) (2008, Фантастика, боевик, драма) [H.264] BDRip Omen
1 | 0

0 | 3591

25

2013-02-20 16:44
Omen Latest
./templates/default/images/folder_dl.gif Мультимедийные приложения Александр Карташев - WordPress Express Быстрое создание сайта [2012] [unpacked] Omen
1 | 0

0 | 40

15

2013-02-21 22:18
Omen Latest
./templates/default/images/folder_dl.gif Фантастика, фэнтези, ужасы, мистика Алексей Махров, Борис Орлов - Царствуй на страх врагам! Прогрессор на престоле. Часть 1. [SurikenTSD, 2012 г., 128kbps, MP3] Omen
1 | 0

0 | 490

3

2013-03-29 01:35
Omen Latest
./templates/default/images/folder_dl.gif Приключения, детектив, боевик, триллер Наталья Александрова | Цикл «Приключения поручика Ордынцева» (5 книг) [2009-2010] [FB2] Omen
1 | 0

0 | 1500

6

2013-07-22 21:09
Omen Latest
./templates/default/images/folder_dl.gif Обучающее видео Александр Свет | Профессиональная обработка RAW в Capture One Pro 7 (2013) [PCRec] UndegraundMen
1 | 0

0 | 4460

50

2013-11-28 23:01
UndegraundMen Latest
Display posts from previous:    
Reply to topic

The time now is: Today 14:19

All times are GMT + 3 Hours



You cannot post new topics in this forum
You cannot reply to topics in this forum
You cannot edit your posts in this forum
You cannot delete your posts in this forum
You cannot vote in polls in this forum
You cannot attach files in this forum
You cannot download files in this forum