Today is a free download without charge Download

[Profileschool] Алексей Шадрин | Секреты современного искусства - Марк Шагал (2015) PCRec

Reply to topic
 
Author
Message

Omen ®

Longevity: 7 years 10 months

Posts: 181087

Торрент-статистика

Post 06-Apr-2015 16:23

[Quote]

[Profileschool] Алексей Шадрин
Секреты современного искусства - Марк Шагал
- Автор (режиссер): Алексей Шадрин
Жанр: Фото, живопись, картины
Продолжительность: 04:17:51
Качество видео: PCRec
Видеокодек: H264
Битрейт видео: ~512 Kbps, 30fps
Размер кадра: 1920x1080
Аудиокодек: AAC
Битрейт аудио: 128kbps(vbr), 44.1 KHz, 2 channels
Описание:
Онлайн семинар Алексея Шадрина «Секреты современного искусства: Марк Шагал» будет полезен каждому, кто интересуется изобразительным искусством и старается понять искусство современное, а также для тех, кто хочет преодолеть предубеждение против него.

Полное описание:

Опыт прошлых лет показал, что во все времена лучшим вложением сил и времени была инвестиция в саморазвитие и самосовершенствование, то есть — в самообразование. Сегодня к тому есть все условия, а онлайн-формат удачно добавляет к ним техническую возможность. Поэтому мы продолжаем цикл общеобразовательных семинаров, посвященных высшему проявлению гуманитарной мысли — искусству, способному расширить наш профессиональный кругозор, наше представление о мире и о самих себе, а также выступить психологической основой личностного роста, особенно в переходное время.
Вы услышите деликатный, рассудительный, но, вместе с тем, эмоциональный и экспрессивный рассказ об одном из самых «сумасбродных», но и о самом открытом для понимания художнике XX века, фигуративные композиции и колористический язык которого оказали огромное влияние на европейскую изобразительную культуру XX в. по обе стороны Атлантики.

МедиаИнфо:

General
Complete name : S:\Алексей Шадрин - Секреты современного искусства - Марк Шагал (2015)\Алексей Шадрин - Секреты современного искусства - Марк Шагал.mp4
Format : MPEG-4
Format profile : Base Media
Codec ID : isom
File size : 1.16 GiB
Duration : 4h 17mn
Overall bit rate mode : Variable
Overall bit rate : 645 Kbps
Writing application : Lavf54.20.4
Video
ID : 1
Format : AVC
Format/Info : Advanced Video Codec
Format profile : [url=mailto:[email protected]][email protected][/url]
Format settings, CABAC : Yes
Format settings, ReFrames : 4 frames
Codec ID : avc1
Codec ID/Info : Advanced Video Coding
Duration : 4h 17mn
Bit rate : 512 Kbps
Width : 1 920 pixels
Height : 1 080 pixels
Display aspect ratio : 16:9
Frame rate mode : Constant
Frame rate : 30.000 fps
Color space : YUV
Chroma subsampling : 4:2:0
Bit depth : 8 bits
Scan type : Progressive
Bits/(Pixel*Frame) : 0.008
Stream size : 942 MiB (79%)
Writing library : x264 core 142 r2389 956c8d8
Encoding settings : cabac=1 / ref=3 / deblock=1:0:0 / analyse=0x3:0x113 / me=hex / subme=7 / psy=1 / psy_rd=1,00:0,00 / mixed_ref=1 / me_range=16 / chroma_me=0 / trellis=1 / 8x8dct=1 / cqm=0 / deadzone=21,11 / fast_pskip=1 / chroma_qp_offset=-2 / threads=6 / lookahead_threads=1 / sliced_threads=0 / nr=0 / decimate=1 / interlaced=0 / bluray_compat=0 / constrained_intra=0 / bframes=3 / b_pyramid=2 / b_adapt=1 / b_bias=0 / direct=1 / weightb=1 / open_gop=0 / weightp=2 / keyint=250 / keyint_min=25 / scenecut=40 / intra_refresh=0 / rc_lookahead=40 / rc=abr / mbtree=1 / bitrate=512 / ratetol=1,0 / qcomp=0,60 / qpmin=10 / qpmax=51 / qpstep=4 / ip_ratio=1,25 / aq=1:1,00
Audio
ID : 2
Format : AAC
Format/Info : Advanced Audio Codec
Format profile : LC
Codec ID : 40
Duration : 4h 17mn
Bit rate mode : Variable
Bit rate : 128 Kbps
Channel count : 2 channels
Channel positions : Front: L R
Sampling rate : 44.1 KHz
Compression mode : Lossy
Stream size : 236 MiB (20%)
Скриншоты:
       
Other forum [Profile] [PM]
Display posts from previous:    
Reply to topic

The time now is: Today 23:25

All times are GMT + 3 Hours



You cannot post new topics in this forum
You cannot reply to topics in this forum
You cannot edit your posts in this forum
You cannot delete your posts in this forum
You cannot vote in polls in this forum
You cannot attach files in this forum
You cannot download files in this forum