Today is a free download without charge Download

Ягодкин Николай | Техника запоминания 100 иностранных слов в час [2012] PCRec

Reply to topic
 
Author
Message

UndegraundMen ®

Longevity: 8 years 5 months

Posts: 25145

Торрент-статистика

Post 22-Jun-2013 03:19

[Quote]

Ягодкин Николай | Техника запоминания 100 иностранных слов в час - Автор (режиссер): Ягодкин Николай
Название: Техника запоминания 100 иностранных слов в час
Год выпуска: 2012
Жанр: Иностранные языки
Качество видео: PCRec
Продолжительность: 04:19:25
Видеокодек: AVC
Битрейт видео: ~288 Кбит/сек, 10,181 кадров/сек
Размер кадра: 752 x 422
Аудиокодек: AAC
Битрейт аудио: 128 Кбит/сек, 2 канала, 44,1 КГц
Описание:Вы научитесь запоминать иностранные слова со скоростью 100 слов в час, что сократит время освоения любого языка минимум в 2-3 раза.
Если Вы учите какой-либо иностранный язык, то 80% времени освоения занимает запоминание слов, которое обычно сводиться к «зубёржке» — процессу длительному, рутинному и крайне малоэффективному. Недостаток словарного запаса не даёт нам изучать живой язык через разговор, чтение, просмотр фильмов. Вызубривать даже по 20-30 слов в день недостаточно – потому что они зачастую не только не выходят в активный словарь, но и не узнаются в тексте и быстро забываются, без постоянной зубрёжки.
Запоминание слов это балласт, который заставляет Вас учить язык даже не месяцы, а годы, что делает процесс рутинным, неинтересным и мало результативным. И так язык учит большинство людей.
А теперь представьте, что за первую неделю изучения языка Вы легко смогли бы запомнить 800 слов – минимум достаточный для общения на общие темы и изучение языка сразу превратилось бы в живой и интересный процесс. А за месяц, посвящая всего по часу в день, Вы выучили бы 3000 слов и начали читать книги и смотреть фильмы на изучаемом языке, что моментально продвинет Вас в грамматике и понимании речи.
Скриншоты:            

Сюжет первого канала об этой технологии:

MediaInfo

Общее
Полное имя : Yagodkin 100 words.mp4
Формат : MPEG-4
Профиль формата : Base Media
Идентификатор кодека : isom
Размер файла : 780 Мбайт
Продолжительность : 4 ч. 19 м.
Общий поток : 420 Кбит/сек
Программа кодирования : Lavf53.4.0
Видео
Идентификатор : 1
Формат : AVC
Формат/Информация : Advanced Video Codec
Профиль формата : [url=mailto:[email protected]][email protected][/url]
Параметр CABAC формата : Да
Параметр ReFrames формата : 3 кадра
Идентификатор кодека : avc1
Идентификатор кодека/Информация : Advanced Video Coding
Продолжительность : 4 ч. 19 м.
Битрейт : 288 Кбит/сек
Ширина : 752 пикселя
Высота : 422 пикселя
Соотношение сторон : 16:9
Режим частоты кадров : Переменный
Частота кадров : 10,181 кадров/сек
Минимальная частота кадров : 0,045 кадр/сек
Максимальная частота кадров : 30,000 кадров/сек
Цветовое пространство : YUV
Субдискретизация насыщенности : 4:2:0
Битовая глубина : 8 бит
Тип развёртки : Прогрессивная
Бит/(Пиксели*Кадры) : 0.089
Размер потока : 535 Мбайт (69%)
Библиотека кодирования : x264 core 116 r2066 ddf82cd
Настройки программы : cabac=1 / ref=3 / deblock=1:0:0 / analyse=0x3:0x113 / me=hex / subme=7 / psy=1 / psy_rd=1.00:0.00 / mixed_ref=1 / me_range=16 / chroma_me=1 / trellis=1 / 8x8dct=1 / cqm=0 / deadzone=21,11 / fast_pskip=1 / chroma_qp_offset=-4 / threads=2 / sliced_threads=0 / nr=0 / decimate=1 / interlaced=0 / bluray_compat=0 / constrained_intra=0 / bframes=0 / weightp=2 / keyint=250 / keyint_min=25 / scenecut=40 / intra_refresh=0 / rc=crf / mbtree=0 / crf=28.0 / qcomp=0.60 / qpmin=0 / qpmax=69 / qpstep=4 / ip_ratio=1.40 / aq=1:1.00
Аудио
Идентификатор : 2
Формат : AAC
Формат/Информация : Advanced Audio Codec
Профиль формата : LC
Идентификатор кодека : 40
Продолжительность : 4 ч. 19 м.
Вид битрейта : Постоянный
Битрейт : 128 Кбит/сек
Каналы : 2 канала
Расположение каналов : Front: L R
Частота : 44,1 КГц
Метод сжатия : С потерями
Размер потока : 238 Мбайт (30%)
Other forum [Profile] [PM]

Tatinezh

Longevity: 6 years 5 months

Posts: 6

Торрент-статистика

Post 27-Feb-2015 11:02 (after 1 year 8 months)

[Quote]

Не могу скачать даже в указанное время( раздайте пожалуйста)))
Other forum [Profile] [PM]

Tatinezh

Longevity: 6 years 5 months

Posts: 6

Торрент-статистика

Post 01-Mar-2015 05:46 (after 1 day 18 hours)

[Quote]

Геннадич, спасибо огромное приогромное, все скачалось!!!)))
Other forum [Profile] [PM]

zadov

Gender:

Longevity: 6 years 11 months

Posts: 6

Торрент-статистика

Post 12-Mar-2015 20:50 (after 11 days)

[Quote]

cидов 123,а скачивания нет хм...
Other forum [Profile] [PM]

rebeka

Longevity: 6 years 2 months

Posts: 2

Торрент-статистика

Post 03-May-2015 18:45 (after 1 month 21 day)

[Quote]

Раздайте файли, плиз. Очень нужно :)
Other forum [Profile] [PM]

rebeka

Longevity: 6 years 2 months

Posts: 2

Торрент-статистика

Post 03-May-2015 19:08 (after 22 minutes)

[Quote]

Я написала после того, как на скачивание встала :))
В любом случае спасибо. Медленно, но качает.
Other forum [Profile] [PM]

knightrocker

Longevity: 6 years 2 months

Posts: 1

Торрент-статистика

Post 05-May-2015 18:27 (after 1 day 23 hours)

[Quote]

вообще не качает Shocked
KГеннадич wrote:

если будешь кричать: "халва", слаще во рту не будет.
встань на раздачу и не пиши всякую ерунду...
Other forum [Profile] [PM]

Камиии

Longevity: 5 years 9 months

Posts: 1

Торрент-статистика

Post 20-Oct-2015 09:09 (after 5 months 14 days)

[Quote]

как скачать???? Технику запоминания 100 слов
Other forum [Profile] [PM]
Display posts from previous:    
Reply to topic

The time now is: Today 19:24

All times are GMT + 3 Hours



You cannot post new topics in this forum
You cannot reply to topics in this forum
You cannot edit your posts in this forum
You cannot delete your posts in this forum
You cannot vote in polls in this forum
You cannot attach files in this forum
You cannot download files in this forum