Today is a free download without charge Download

Андрей Ковалёв - Неба синь (2005) [FLAC|image +.cue]<Pop>

Reply to topic
 
Author
Message

NarDok ®

Longevity: 7 years 5 months

Posts: 914

Торрент-статистика

Post 26-Jun-2015 21:57

[Quote]

Андрей Ковалёв - Неба синь - Год: 2005
Жанр: Pop
Страна-производитель диска: Россия
Издатель (лейбл): Prof Music
Номер по каталогу: VETER 35-2
Продолжительность: 00:53:54
Кодек: FLAC
Битрейт: Lossless
Тип рипа: image+.cue
Треклист:
01. Соль, текила и ломтик лайма
02. Это ложь
03. Разбитая любовь
04. Если хочешь
05. Неба синь
06. Ночной вокзал
07. Милая - Любимая
08. Ледоход
09. Мартовский кот
10. Телефон
11. В маленьком кафе
12. Маяки
13. Цок - цок - цок
14. Синий лёд
15. Соль, текила и ломтик лайма [REMIX]

Отчёт ЕАС&#58;

Код:
Exact Audio Copy V1.0 beta 2 from 29. April 2011
Отчёт EAC об извлечении, выполненном 26. июня 2015, 14:55
Андрей Ковалёв / Неба синь
Дисковод: TSSTcorpBDDVDW SE-506BB   Adapter: 1  ID: 0
Режим чтения                 : Достоверность
Использование точного потока : Да
Отключение кэша аудио        : Да
Использование указателей C2  : Нет
Коррекция смещения при чтении                     : 6
Способность читать области Lead-in и Lead-out     : Нет
Заполнение пропущенных сэмплов тишиной            : Да
Удаление блоков с тишиной в начале и конце        : Нет
При вычислениях CRC использовались нулевые сэмплы : Да
Интерфейс                                         : Встроенный Win32-интерфейс для Win NT/2000
Выходной формат : Внутренние WAV-операции
Формат сэмплов  : 44.100 Гц; 16 бит; стерео
TOC извлечённого CD
     Трек |   Старт  | Длительность | Начальный сектор | Конечный сектор
    ---------------------------------------------------------------------
       1  |  0:00.00 |    3:46.00   |           0      |      16949
       2  |  3:46.00 |    4:08.25   |       16950      |      35574
       3  |  7:54.25 |    4:06.51   |       35575      |      54075
       4  | 12:01.01 |    3:40.54   |       54076      |      70629
       5  | 15:41.55 |    4:11.58   |       70630      |      89512
       6  | 19:53.38 |    3:43.20   |       89513      |     106257
       7  | 23:36.58 |    3:05.69   |      106258      |     120201
       8  | 26:42.52 |    3:13.35   |      120202      |     134711
       9  | 29:56.12 |    3:07.31   |      134712      |     148767
      10  | 33:03.43 |    3:56.59   |      148768      |     166526
      11  | 37:00.27 |    3:49.61   |      166527      |     183762
      12  | 40:50.13 |    3:32.33   |      183763      |     199695
      13  | 44:22.46 |    3:06.41   |      199696      |     213686
      14  | 47:29.12 |    3:01.64   |      213687      |     227325
      15  | 50:31.01 |    3:23.32   |      227326      |     242582
      16  | 56:26.33 |    6:02.31   |      253983      |     281163
Характеристики диапазона извлечения и сообщения об ошибках
Выбранный диапазон
     Имя файла J:\ОТЕЧЕСТВЕННАЯ POP - МУЗЫКА\КОВАЛЁВ АНДРЕЙ © [Дискография]\КОВАЛЁВ АНДРЕЙ (с) 2005 [Неба синь]\Андрей Ковалёв - Неба синь.wav
     Пиковый уровень 99.9 %
     Скорость извлечения 2.0 X
     Качество диапазона 100.0 %
     CRC теста D35E778B
     CRC копии D35E778B
     Копирование... OK
Ошибок не произошло
AccurateRip: сводка
Трек  1  отсутствует в базе данных
Трек  2  отсутствует в базе данных
Трек  3  отсутствует в базе данных
Трек  4  отсутствует в базе данных
Трек  5  отсутствует в базе данных
Трек  6  отсутствует в базе данных
Трек  7  отсутствует в базе данных
Трек  8  отсутствует в базе данных
Трек  9  отсутствует в базе данных
Трек 10  отсутствует в базе данных
Трек 11  отсутствует в базе данных
Трек 12  отсутствует в базе данных
Трек 13  отсутствует в базе данных
Трек 14  отсутствует в базе данных
Трек 15  отсутствует в базе данных
Ни одного трека нет в базе AccurateRip
Конец отчёта
==== Контрольная сумма отчёта 9F6442CB2B02D0D11D6B6BA205C422722443D12AF1E1F7EFB25B7ECC408AA9CC ====

Отчёт auCDtect Task manager&#58;

Код:
-----------------------
DON'T MODIFY THIS FILE
-----------------------
PERFORMER: auCDtect Task Manager, ver. 1.6.0 RC1 build 1.6.0.1
Copyright (c) 2008-2010 y-soft. All rights reserved
http://y-soft.org
ANALYZER: auCDtect: CD records authenticity detector, version 0.8.2
Copyright (c) 2004 Oleg Berngardt. All rights reserved.
Copyright (c) 2004 Alexander Djourik. All rights reserved.
FILE: Андрей Ковалёв - Неба синь.flac
  Size: 417556064 Hash: BBC080BDC8618094E7AF7A0C485AE4D1 Accuracy: -m0
  Conclusion: CDDA 100%
  Signature: E457CC842FCAE052D0DAABA0DCFBA8A1B2BC92C2

Спектрограмма&#58;

 

_________________

Other forum [Profile] [PM]
Similar theme
Forum Topic Author Torrent Replies Last Post
./templates/default/images/folder_dl.gif Психология, Тренинг, Саморазвитие Андрей Парабеллум, Николай Мрочковский | Быстрые результаты. 10-дневная программа повышения личной эффективности (2012) [FB2, PDF, DOCX] moralis
1 | 0

0 | 493

1

2016-02-04 13:13
moralis Latest
./templates/default/images/folder_dl.gif Обучающее видео Андрей Зейгарник | Композиция и психология восприятия (2016) PCRec Omen
1 | 0

0 | 2247

32

2016-03-09 21:43
Omen Latest
./templates/default/images/folder_dl.gif Обучающее видео Андрей Журавлев. | Мастер-класс. Цветокоррекция по числам. (2013) WEBRip [H.264] moralis
1 | 0

0 | 2451

37

2016-04-03 14:30
moralis Latest
Display posts from previous:    
Reply to topic

The time now is: Today 05:41

All times are GMT + 3 Hours



You cannot post new topics in this forum
You cannot reply to topics in this forum
You cannot edit your posts in this forum
You cannot delete your posts in this forum
You cannot vote in polls in this forum
You cannot attach files in this forum
You cannot download files in this forum