Today is a free download without charge Download

Omoide no Marnie / When Marnie Was There / Воспоминания о Марни [2014, MV] BDRip 720p Raw+Rus x2

Reply to topic
 
Author
Message

Clavik ®

Gender:

Longevity: 6 years 3 months

Posts: 2438

Location: Украина

Торрент-статистика

Post 02-Jul-2015 23:49

[Quote]

Omoide no Marnie / When Marnie Was There / Воспоминания о Марни- Жанр: приключения, драма
Тип: полнометражный фильм
Продолжительность: 01:42:41
Премьера: 19.07.2014
Автор: Джоан Робинсон
Режиссер: Ёнэбаяси Хиромаса
Производство: Studio Ghibli- -Описание:
У Анны, маленькой девочки, что живет в Саппоро, проблемы с одноклассниками. Из-за постоянных панических атак доктор рекомендует ей переехать в какое-нибудь тихое местечко. Переехав за город в семьей, но без матери, она большую часть своего времени проводит, рисуя и гуляя. Вскоре она замечает, что ее очень уж интересует заброшенный дом у воды... и именно здесь она встречает Марни.
Как ни странно, Марни - первая ее ровесница, с которой ей легко дружить и общаться. Вот только есть в ней что-то странное... Марни просит не говорить о ней никому. Все становится еще хуже - у Анны случаются частые обмороки, она становится забывчивой...
Связано ли это с Марни? И кто эта таинственная девочка на самом деле?-Качество: BDRip| Энкод: Ampho | Формат: MKV
Видео: x264, 1280x720, ~2800 kbps, 23.976 fps
Аудио: AAC, 192 kbps, 48.0 kHz, 2 ch «NIKITOS, Karkazik, NesTea, Lizaveta»
Аудио: AC-3, 640 kbps, 48.0 kHz, 5 ch «Emeri & Shoker»
Аудио: AC-3, 640 kbps, 48.0 kHz, 5 ch «Original»
Субтитры: ASS, Полные, Отключаемые «Studio Ghibli»
Субтитры: ASS, Полные, Отключаемые «Teisoku & Timecraft»-

Тех. параметры:

Код:
General
Unique ID                   : 222371589584910188810833015235732366583 (0xA74B35D749447AA5B8406BA77038E4F7)
Complete name               : [NNM-Club] Omoide no Marnie [BD] [720p].mkv
Format                      : Matroska
Format version              : Version 4 / Version 2
File size                   : 3.08 GiB
Duration                    : 1h 42mn
Overall bit rate            : 4 291 Kbps
Movie name                  : Omoide no Marnie
Encoded date                : UTC 2015-04-16 19:21:17
Writing application         : mkvmerge v7.8.0 ('River Man') 64bit built on Mar 27 2015 16:31:37
Writing library             : libebml v1.3.1 + libmatroska v1.4.2
DURATION                    : 01:42:25.050000000
NUMBER_OF_FRAMES            : 1069
NUMBER_OF_BYTES             : 73950
_STATISTICS_WRITING_APP     : mkvmerge v7.8.0 ('River Man') 64bit built on Mar 27 2015 16:31:37
_STATISTICS_WRITING_DATE_UT : 2015-04-16 19:21:17
_STATISTICS_TAGS            : BPS DURATION NUMBER_OF_FRAMES NUMBER_OF_BYTES
Video
ID                          : 1
Format                      : AVC
Format/Info                 : Advanced Video Codec
Format profile              : [url=mailto:[email protected]][email protected][/url]
Format settings, CABAC      : Yes
Format settings, ReFrames   : 6 frames
Codec ID                    : V_MPEG4/ISO/AVC
Duration                    : 1h 42mn
Nominal bit rate            : 2 816 Kbps
Width                       : 1 280 pixels
Height                      : 720 pixels
Display aspect ratio        : 16:9
Frame rate mode             : Constant
Frame rate                  : 23.976 fps
Color space                 : YUV
Chroma subsampling          : 4:2:0
Bit depth                   : 8 bits
Scan type                   : MBAFF
Scan order                  : Top Field First
Bits/(Pixel*Frame)          : 0.127
Title                       : [Ampho] BDRip 720p NNM-Club
Writing library             : x264 core 146 r2538M 121396c
Encoding settings           : cabac=1 / ref=6 / deblock=1:-4:-4 / analyse=0x3:0x133 / me=umh / subme=11 / psy=1 / psy_rd=1,05:0,10 / mixed_ref=1 / me_range=24 / chroma_me=1 / trellis=2 / 8x8dct=1 / cqm=0 / deadzone=21,11 / fast_pskip=0 / chroma_qp_offset=-3 / threads=6 / lookahead_threads=1 / sliced_threads=0 / nr=0 / decimate=1 / interlaced=tff / bluray_compat=0 / constrained_intra=0 / bframes=6 / b_pyramid=2 / b_adapt=2 / b_bias=0 / direct=3 / weightb=1 / open_gop=0 / weightp=0 / keyint=230 / keyint_min=23 / scenecut=40 / intra_refresh=0 / rc=2pass / mbtree=0 / bitrate=2816 / ratetol=1,0 / qcomp=0,70 / qpmin=3 / qpmax=69 / qpstep=4 / cplxblur=20,0 / qblur=0,5 / ip_ratio=1,40 / pb_ratio=1,30 / aq=2:1,00
Default                     : Yes
Forced                      : No
Audio #1
ID                          : 2
Format                      : AAC
Format/Info                 : Advanced Audio Codec
Format profile              : LC
Codec ID                    : A_AAC
Duration                    : 1h 42mn
Channel(s)                  : 2 channels
Channel positions           : Front: L R
Sampling rate               : 48.0 KHz
Compression mode            : Lossy
Title                       : NIKITOS, Karkazik, NesTea, Lizaveta [2.0]
Language                    : Russian
Default                     : Yes
Forced                      : No
Audio #2
ID                          : 3
Format                      : AC-3
Format/Info                 : Audio Coding 3
Mode extension              : CM (complete main)
Format settings, Endianness : Big
Codec ID                    : A_AC3
Duration                    : 1h 42mn
Bit rate mode               : Constant
Bit rate                    : 640 Kbps
Channel(s)                  : 5 channels
Channel positions           : Front: L C R, Side: L R
Sampling rate               : 48.0 KHz
Bit depth                   : 16 bits
Compression mode            : Lossy
Stream size                 : 470 MiB (15%)
Title                       : Emeri & Shoker [5.1]
Language                    : Russian
Default                     : No
Forced                      : No
Audio #3
ID                          : 4
Format                      : AC-3
Format/Info                 : Audio Coding 3
Mode extension              : CM (complete main)
Format settings, Endianness : Big
Codec ID                    : A_AC3
Duration                    : 1h 42mn
Bit rate mode               : Constant
Bit rate                    : 640 Kbps
Channel(s)                  : 5 channels
Channel positions           : Front: L C R, Side: L R
Sampling rate               : 48.0 KHz
Bit depth                   : 16 bits
Compression mode            : Lossy
Delay relative to video     : 26ms
Stream size                 : 470 MiB (15%)
Title                       : Original [5.1]
Language                    : Japanese
Default                     : No
Forced                      : No
Text #1
ID                          : 5
Format                      : ASS
Codec ID                    : S_TEXT/ASS
Codec ID/Info               : Advanced Sub Station Alpha
Compression mode            : Lossless
Title                       : Studio Ghibli
Language                    : Russian
Default                     : No
Forced                      : No
Text #2
ID                          : 6
Format                      : ASS
Codec ID                    : S_TEXT/ASS
Codec ID/Info               : Advanced Sub Station Alpha
Compression mode            : Lossless
Title                       : Teisoku & Timecraft
Language                    : Russian
Default                     : No
Forced                      : No
Menu
00:00:00.000                : en:Глава 1
00:08:44.190                : en:Глава 2
00:18:58.470                : en:Глава 3
00:28:24.160                : en:Глава 4
00:34:31.027                : en:Глава 5
00:42:21.496                : en:Глава 6
00:50:59.181                : en:Глава 7
00:57:21.019                : en:Глава 8
01:06:36.742                : en:Глава 9
01:14:01.185                : en:Глава 10
01:23:59.576                : en:Глава 11
01:36:36.457                : en:Глава 12
01:42:40.945                : en:Глава 13
-            

_________________


Other forum [Profile] [PM]
Display posts from previous:    
Reply to topic

The time now is: Today 19:35

All times are GMT + 3 Hours



You cannot post new topics in this forum
You cannot reply to topics in this forum
You cannot edit your posts in this forum
You cannot delete your posts in this forum
You cannot vote in polls in this forum
You cannot attach files in this forum
You cannot download files in this forum