Today is a free download without charge Download

Юрий Воронюк - Иди на свет (2011) [FLAC|image+.cue]<Шансон>

Reply to topic
 
Author
Message

NarDok ®

Longevity: 7 years 10 months

Posts: 914

Торрент-статистика

Post 05-Sep-2015 16:40

[Quote]

Юрий Воронюк - Иди на свет - Год: 2011
Страна-производитель диска: Украина
Издатель (лейбл): МПП фирма "МЕД"
Номер по каталогу: К0382
Жанр: Шансон
Продолжительность: 00:47:08
Кодек: FLAC
Битрейт: Lossless
Тип рипа: image+.cue
Треклист:
01. Поздравляю [03:20]
02. Красотка девочка-весна [03:05]
03. Посвяти мне эту ночь [03:43]
04. Одинаково и по-разному [03:15]
05. Любовь-морковь [03:43]
06. Белочка [02:46]
07. Время пришло любить [03:58]
08. Жизнь-езда [02:53]
09. Рельсы снегом припорошены (посвящается моей жене Инночке) [03:03]
10. Торт со свечкой (посвящается Н.Г.Бэшану) [02:29]
11. Гелиопарк Сосновая Роща [04:05]
12. Я люблю тебя так, как не любил никто [03:21]
13. Окна [03:01]
14. Иди на свет [04:19]

Отчёт ЕАС&#58;

Код:
Exact Audio Copy V1.0 beta 1 from 15. November 2010
Отчёт EAC об извлечении, выполненном 22. марта 2013, 17:21
Юрий Воронюк / Иди на свет
Дисковод: ASUS    DRW-24B3ST   Adapter: 0  ID: 1
Режим чтения                 : Достоверность
Использование точного потока : Да
Отключение кэша аудио        : Да
Использование указателей C2  : Нет
Коррекция смещения при чтении                     : 6
Способность читать области Lead-in и Lead-out     : Нет
Заполнение пропущенных сэмплов тишиной            : Да
Удаление блоков с тишиной в начале и конце        : Нет
При вычислениях CRC использовались нулевые сэмплы : Да
Интерфейс                                         : Встроенный Win32-интерфейс для Win NT/2000
Выходной формат          : Пользовательский кодировщик
Выбранный битрейт        : 896 kBit/s
Качество                 : Высокий
Добавление ID3-тэга      : Нет
Утилита сжатия           : C:\Program Files\FLAC\flac.exe
Дополнительные параметры : -T "DATE=%y" -T "GENRE=%m" -8 -V %s
TOC извлечённого CD
     Трек |   Старт  | Длительность | Начальный сектор | Конечный сектор
    ---------------------------------------------------------------------
       1  |  0:00.00 |    3:20.59   |           0      |      15058
       2  |  3:20.59 |    3:05.34   |       15059      |      28967
       3  |  6:26.18 |    3:43.60   |       28968      |      45752
       4  | 10:10.03 |    3:15.41   |       45753      |      60418
       5  | 13:25.44 |    3:43.40   |       60419      |      77183
       6  | 17:09.09 |    2:46.57   |       77184      |      89690
       7  | 19:55.66 |    3:58.51   |       89691      |     107591
       8  | 23:54.42 |    2:53.32   |      107592      |     120598
       9  | 26:47.74 |    3:03.08   |      120599      |     134331
      10  | 29:51.07 |    2:29.17   |      134332      |     145523
      11  | 32:20.24 |    4:05.37   |      145524      |     163935
      12  | 36:25.61 |    3:21.41   |      163936      |     179051
      13  | 39:47.27 |    3:01.44   |      179052      |     192670
      14  | 42:48.71 |    4:19.23   |      192671      |     212118
Характеристики диапазона извлечения и сообщения об ошибках
Выбранный диапазон
     Имя файла \Юрий Воронюк - Иди на свет.wav
     Пиковый уровень 100.0 %
0.2 X
     Качество диапазона 100.0 %
     CRC теста B018E9BC
     CRC копии B018E9BC
     Копирование... OK
Ошибок не произошло
AccurateRip: сводка
Трек  1  нет в базе данных
Трек  2  нет в базе данных
Трек  3  нет в базе данных
Трек  4  нет в базе данных
Трек  5  нет в базе данных
Трек  6  нет в базе данных
Трек  7  нет в базе данных
Трек  8  нет в базе данных
Трек  9  нет в базе данных
Трек 10  нет в базе данных
Трек 11  нет в базе данных
Трек 12  нет в базе данных
Трек 13  нет в базе данных
Трек 14  нет в базе данных
Ни одного трека нет в базе AccurateRip
Конец отчёта
====  BFEFF1B4D9A6A0B3BE4F89ED26532FC5EB18C23091EBAABE3913D401AD929194 ====

Отчёт auCDtect Task manager&#58;

Код:
-----------------------
DON'T MODIFY THIS FILE
-----------------------
PERFORMER: auCDtect Task Manager, ver. 1.6.0 RC1 build 1.6.0.1
Copyright (c) 2008-2010 y-soft. All rights reserved
http://y-soft.org
ANALYZER: auCDtect: CD records authenticity detector, version 0.8.2
Copyright (c) 2004 Oleg Berngardt. All rights reserved.
Copyright (c) 2004 Alexander Djourik. All rights reserved.
FILE: Юрий Воронюк - Иди на свет.flac
  Size: 349440446 Hash: 6C504908A4474F6B654393F1CA2A93D6 Accuracy: -m0
  Conclusion: CDDA 99%
  Signature: CAF50F33B64CD3AEF606F5971D915B727997882E

Спектрограмма&#58;

 

_________________

Other forum [Profile] [PM]
Display posts from previous:    
Reply to topic

The time now is: Today 06:10

All times are GMT + 3 Hours



You cannot post new topics in this forum
You cannot reply to topics in this forum
You cannot edit your posts in this forum
You cannot delete your posts in this forum
You cannot vote in polls in this forum
You cannot attach files in this forum
You cannot download files in this forum