Today is a free download without charge Download

Киножурнал Хочу все знать (14 из 205) [1957-1991, детский, научно-познавательный, IPTVRip]

Reply to topic
 
Author
Message

Omen ®

Longevity: 7 years 10 months

Posts: 181087

Торрент-статистика

Post 18-Dec-2015 00:00

[Quote]

Киножурнал Хочу все знать (15 из 205)
Дата/Год выпуска: 1957-1991
Страна: СССР
Жанр: детский, научно-познавательный
Продолжительность: 14х ~10 минут
Перевод: Не требуется
Описание: Советский, ежемесячный, детский, научно-популярный киножурнал. «Хочу всё знать» выпускается с 1957-го года. Он в доступной форме рассказывает детям обо всём на свете: о загадках и тайнах вселенной, об устройстве окружающего мира, о выдающихся научных открытиях и достижениях технического прогресса, о флоре и фауне земного шара, о строении самого человека, о всевозможных природных явлениях. Каждый сюжет журнала — это страничка увлекательной энциклопедии, позволяющей юному зрителю найти ответ, казалось бы, на простой, но очень важный вопрос. Сюжеты киножурнала будут интересны как взрослым так и детям.
Доп. информация: вошли и войдут выпуски снятые только при СССР
качество: IPTVRip
формат: AVI
Видео: Xvid 624x480 25fps 939kbps
Аудио: MP3 44100Hz stereo 112kbps

выпуски

3100101102103109133134135148151160161183

MediaInfo

GeneralComplete name : C:\Хочу все знать\Хочу все знать 134 (1980).aviFormat : AVIFormat/Info : Audio Video InterleaveFile size : 74.1 MiBDuration : 9mn 45sOverall bit rate : 1 062 KbpsWriting application : VirtualDubMod 1.5.10.3 | www.virtualdub-fr.org || (build 2550/release)Writing library : VirtualDubMod build 2550/release
VideoID : 0Format : MPEG-4 VisualFormat profile : Advanced [email protected] settings, BVOP : 1Format settings, QPel : NoFormat settings, GMC : No warppointsFormat settings, Matrix : Default (H.263)Codec ID : XVIDCodec ID/Hint : XviDDuration : 9mn 45sBit rate : 940 KbpsWidth : 624 pixelsHeight : 480 pixelsDisplay aspect ratio : 4:3Frame rate : 25.000 fpsColor space : YUVChroma subsampling : 4:2:0Bit depth : 8 bitsScan type : ProgressiveCompression mode : LossyBits/(Pixel*Frame) : 0.126Stream size : 65.6 MiB (89%)Writing library : XviD 1.2.1 (UTC 2008-12-04)
AudioID : 1Format : MPEG AudioFormat version : Version 1Format profile : Layer 3Mode : Joint stereoCodec ID : 55Codec ID/Hint : MP3Duration : 9mn 45sBit rate mode : ConstantBit rate : 112 KbpsChannel(s) : 2 channelsSampling rate : 44.1 KHzCompression mode : LossyStream size : 7.82 MiB (11%)Alignment : Split accross interleavesInterleave, duration : 40 ms (1.00 video frame)Interleave, preload duratio : 500 msWriting library : LAME3.99rEncoding settings : -m j -V 4 -q 5 -lowpass 15.6 -b 112

Скриншоты

Other forum [Profile] [PM]
Display posts from previous:    
Reply to topic

The time now is: Today 07:03

All times are GMT + 3 Hours



You cannot post new topics in this forum
You cannot reply to topics in this forum
You cannot edit your posts in this forum
You cannot delete your posts in this forum
You cannot vote in polls in this forum
You cannot attach files in this forum
You cannot download files in this forum