Сегодня идет свободное скачивание без начисления Download

Родион Биккулов | Марафон по дизайну в Facebook (2017) PCRec

Ответить на тему
 
Автор
Сообщение

Omen ®

Стаж: 5 лет 7 месяцев

Сообщений: 185412

Торрент-статистика

Пост 09-Мар-2016 09:07

[Цитировать]

Марафон по дизайну в Facebook - Автор (режиссер): Родион Биккулов
Жанр: Обучающее видео
Описание:
Даже если никогда раньше не работали с фотошопом, вы научитесь с нуля создавать уникальный дизайн страницы на Facebook, оформлять аватарки и обложки, правильно размещать информацию.
Это первый запуск курса по дизайну в Facebook от небезысвестного (из аналогичного курса по дизайну во ВКонтакте) автора Родиона Биккулова (Академия интернет предпринимателей).
Кому будет полезен марафон:
-Интернет-предпринимателям, которые занимаются продвижением своего бренда в Facebook
-Начинающим графическим дизайнерам
-Начинающим веб-дизайнерам
-Таргетологам и продвиженцам
-Специалистам по СММ
-Всем, кто хочет узнать, как научиться создавать уникальный дизайн для страниц в Facebook
Продолжительность: 07:41:23
Качество видео: PCRec
Видео: AVC/H.264, 1280x720, ~169 kb/s
Аудио: AAC, 2 ch, 126 kb/s

Mediainfo:

General
Complete name : E:\torrents\Bikkulov_marafon_diz_FB_2017\Урок №1 - Photoshop с нуля.mp4
Format : MPEG-4
Format profile : Base Media / Version 2
Codec ID : mp42 (isom/mp42)
File size : 120 MiB
Duration : 56 min 17 s
Overall bit rate mode : Variable
Overall bit rate : 298 kb/s
Encoded date : UTC 2017-01-30 16:07:34
Tagged date : UTC 2017-01-30 16:07:34
Video
ID : 1
Format : AVC
Format/Info : Advanced Video Codec
Format profile : [url=mailto:[email protected]][email protected][/url]
Format settings, CABAC : Yes
Format settings, ReFrames : 3 frames
Codec ID : avc1
Codec ID/Info : Advanced Video Coding
Duration : 56 min 17 s
Source duration : 56 min 17 s
Bit rate : 169 kb/s
Width : 1 280 pixels
Height : 720 pixels
Display aspect ratio : 16:9
Frame rate mode : Variable
Frame rate : 30.000 FPS
Minimum frame rate : 30.000 FPS
Maximum frame rate : 30.030 FPS
Standard : NTSC
Color space : YUV
Chroma subsampling : 4:2:0
Bit depth : 8 bits
Scan type : Progressive
Bits/(Pixel*Frame) : 0.006
Stream size : 68.2 MiB (57%)
Source stream size : 68.2 MiB (57%)
Language : English
Encoded date : UTC 2017-01-30 16:07:34
Tagged date : UTC 2017-01-30 16:07:34
Color range : Limited
mdhd_Duration : 3377967
Audio
ID : 2
Format : AAC
Format/Info : Advanced Audio Codec
Format profile : LC
Codec ID : 40
Duration : 56 min 17 s
Source duration : 56 min 17 s
Bit rate mode : Variable
Bit rate : 126 kb/s
Maximum bit rate : 168 kb/s
Channel(s) : 2 channels
Channel positions : Front: L R
Sampling rate : 44.1 kHz
Frame rate : 43.066 FPS (1024 spf)
Compression mode : Lossy
Stream size : 50.6 MiB (42%)
Source stream size : 50.6 MiB (42%)
Language : English
Encoded date : UTC 2017-01-30 16:07:34
Tagged date : UTC 2017-01-30 16:07:34
mdhd_Duration : 3377993

Содержание:

Урок №1 — Photoshop с нуля
Урок №1.2 Дополнительный урок — Вычитание фигур
Урок №2 — Дизайн страницы для интернет-магазина
Урок №3 — Дизайн страницы для продажи услуг
Урок №4 — Дизайн страницы для строительной компании
Урок №5 — 3 универсальных способа быстро оформить страницу в Facebook
Урок №6 — Мобильная адаптация оформления
Урок №7 — Оформление постов
Урок №8 — Использование MockUp и операций
— Финальный урок
Скриншоты:
       

Еще скриншоты:

       
Вне форума [Профиль] [ЛС]
Показать сообщения:    
Ответить на тему

Текущее время: Сегодня 09:20

Часовой пояс: GMT + 3



Вы не можете начинать темы
Вы не можете отвечать на сообщения
Вы не можете редактировать свои сообщения
Вы не можете удалять свои сообщения
Вы не можете голосовать в опросах
Вы не можете прикреплять файлы к сообщениям
Вы не можете скачивать файлы