Сегодня идет свободное скачивание без начисления Download

Роман Пузат | Марафон Спарта [март] (2017) PCRec

Ответить на тему
 
Автор
Сообщение

Omen ®

Стаж: 5 лет 7 месяцев

Сообщений: 185412

Торрент-статистика

Пост 09-Мар-2016 18:13

[Цитировать]

Марафон Спарта [март] (2017) - Автор (режиссер): Роман Пузат
Производство: Россия
Жанр: Бизнес
Описание:
Неизбежные сверх-результаты в информационных сайтах!
Эпичный курс для вебмастеров, которые жаждут крови и понимают — сверх-результатов можно достичь, если только выложиться на максимум. Спарта создает для них все условия. За три месяца вы сделаете столько, сколько не делали за 1-2 года.
Продолжительность: 62:43:40
Качество видео: PCRec
Видео: AVC/H.264, 1280x720-1852х1080, ~560-1473 Kbps
Аудио: AAC, 2 ch, 55,6-256 Kbps

Mediainfo:

Общее
Полное имя : D:\Это спарта!\Марафон Спарта март 2017\Урок 1. Водный\Урок 1. Вводный. Спарта.mp4
Формат : MPEG-4
Профиль формата : Base Media
Идентификатор кодека : isom (isom/iso2/avc1/mp41)
Размер файла : 230 Мбайт
Продолжительность : 51 м. 44 с.
Режим общего битрейта : Переменный
Общий поток : 622 Кбит/сек
Название фильма : Untitled Project 2
Дата кодирования : UTC 2017-06-08 18:22:26
Дата пометки : UTC 2017-06-08 18:22:26
Программа кодирования : Lavf56.15.102
Видео
Идентификатор : 1
Формат : AVC
Формат/Информация : Advanced Video Codec
Профиль формата : [url=mailto:[email protected]][email protected][/url]
Параметр CABAC формата : Нет
Параметр ReFrames формата : 2 кадра
Идентификатор кодека : avc1
Идентификатор кодека/Информация : Advanced Video Coding
Продолжительность : 51 м. 44 с.
Битрейт : 560 Кбит/сек
Номинальный битрейт : 386 Кбит/сек
Ширина : 1280 пикселей
Высота : 720 пикселей
Соотношение сторон : 16:9
Режим частоты кадров : Постоянный
Частота кадров : 30,000 кадров/сек
Цветовое пространство : YUV
Субдискретизация насыщенности : 4:2:0
Битовая глубина : 8 бит
Тип развёртки : Прогрессивная
Бит/(Пиксели*Кадры) : 0.020
Размер потока : 207 Мбайт (90%)
Библиотека кодирования : x264 core 142
Настройки программы : cabac=0 / ref=2 / deblock=1:0:0 / analyse=0x1:0x111 / me=hex / subme=4 / psy=1 / psy_rd=1.00:0.00 / mixed_ref=0 / me_range=16 / chroma_me=1 / trellis=1 / 8x8dct=0 / cqm=0 / deadzone=21,11 / fast_pskip=1 / chroma_qp_offset=0 / threads=12 / lookahead_threads=3 / sliced_threads=0 / nr=0 / decimate=1 / interlaced=0 / bluray_compat=0 / constrained_intra=0 / bframes=0 / weightp=0 / keyint=250 / keyint_min=25 / scenecut=40 / intra_refresh=0 / rc_lookahead=20 / rc=abr / mbtree=1 / bitrate=386 / ratetol=1.0 / qcomp=0.60 / qpmin=0 / qpmax=69 / qpstep=4 / ip_ratio=1.40 / aq=1:1.00
Дата кодирования : UTC 2017-06-08 18:22:26
Дата пометки : UTC 2017-06-08 18:22:26
Аудио
Идентификатор : 2
Формат : AAC
Формат/Информация : Advanced Audio Codec
Профиль формата : LC
Идентификатор кодека : 40
Продолжительность : 51 м. 44 с.
Вид битрейта : Переменный
Битрейт : 55,6 Кбит/сек
Максимальный битрейт : 96,0 Кбит/сек
Каналы : 2 канала
Расположение каналов : Front: L R
Частота : 44,1 КГц
Частота кадров : 43,066 кадра/сек (1024 spf)
Метод сжатия : С потерями
Размер потока : 20,6 Мбайт (9%)
Default : Да
AlternateGroup/String : 1
Дата кодирования : UTC 2017-06-08 18:22:26
Дата пометки : UTC 2017-06-08 18:22:26

Дополнительная информация:

В раздаче, помимо видео, присутствуют pdf-файлы презентаций и другие полезные файлы.

Список уроков

Урок 1 Вводный Спарта
Урок 2. Спарта. Ниша_ направление, анализ и сбор
Урок 3. CMS _ ХОСТИНГ _ ДОМЕН _ Я.В + Г.В + ДОП. Наст.
Урок 4. Семантика_ инструментарий _ фишки _ стратегия
Урок 5. Встреча с золотым марафонцем; Денис Модеско
Урок 6. Сессия ответов на вопросы по сбору семантики
Урок 6.5. Опыт Капитанов
Урок 7. Сессия ответов на вопросы по разгруппировке семантики
Урок 8. Обзор сервисов
Урок 9. Онлайн-команда. Ближний круг спартанца
Урок 10. Конкуренция, ТЗ, Биржа
Урок 11. Публикация записей + TDK
Урок 12. Пошаговое руководство по использованию сервиса Перелинк
Урок 13. Внутренняя оптимизация и ручная перелинковка
Урок 14 Спарта. Встреча с золотым марафонцем. Опыт применения перелинковки
Урок 15. Защита сайта
Урок 16. внешняя оптимизация
Урок 17. Встреча с участником Телепорта Опыт применения крауда
Урок 18. Сервисы и модули из инфосайта - в портал
Урок 19. Подборка плагинов, дополняющих функционал
Урок 20. Захват аудитории на повторные касания (e-mail, sendpulse)
Урок 21. Встреча с участником Телепорта Опыт применения обмена трафиком
Урок 22. Монетизация контекст
Урок 23. Индивидуальный дизайн
Урок 24. Монетизация_ прямые рекламодатели
Урок 25. Монетизация_ нестандартные способы
Урок 26. Монетизация офферы
Урок 27. Встреча с золотым марафонцем_ опыт монетизации офферам
Урок 28. не состоялся(отсутствует)
Урок 29. Внешняя оптимизация
Урок 30. Аудит сайта
Урок 31. Фильтры поисковых систем
Урок 32. Глубина и смыслы
Скриншоты:
       
Вне форума [Профиль] [ЛС]
Похожие темы
Форум Тема Автор Торрент Отв. Посл. сообщение
./templates/default/images/folder_dl.gif Архив Книжная серия | Народный роман [12 книг] (1994-1999) [FB2] Omen
1 | 0

0 | 441

1

2015-08-29 13:33
Omen Последнее
./templates/default/images/folder_dl.gif Обучающее видео Роман Ерин | Сборник Курсов по торговле индекса РТС на FORTS. Секция Московской Биржи (2012-2013) PCRec [H.264] moralis
1 | 0

0 | 1048

10

2016-01-29 19:56
moralis Последнее
./templates/default/images/folder_dl.gif Фантастика, фэнтези, ужасы, мистика Роман Шатский | Цикл «Вселенная в Огне» [4 книги] (2017-2018) [FB2] }{@R0N
2 | 0

0 | 189

4

2018-06-19 18:19
}{@R0N Последнее
Показать сообщения:    
Ответить на тему

Текущее время: Сегодня 09:17

Часовой пояс: GMT + 3



Вы не можете начинать темы
Вы не можете отвечать на сообщения
Вы не можете редактировать свои сообщения
Вы не можете удалять свои сообщения
Вы не можете голосовать в опросах
Вы не можете прикреплять файлы к сообщениям
Вы не можете скачивать файлы