Сегодня идет свободное скачивание без начисления Download

Андрей Журавлев. | Мастер-класс. Цветокоррекция по числам. (2013) WEBRip [H.264]

Ответить на тему
 
Автор
Сообщение

moralis ®

Пол:

Стаж: 3 года 6 месяцев

Сообщений: 1687

Торрент-статистика

Пост 03-Апр-2016 14:30

[Цитировать]

Мастер-класс. Цветокоррекция по числам. - Автор (режиссер): Андрей Журавлев.
Жанр: Обучающее видео
Описание:
Как формируется цвет из яркостей красного, зеленого и синего источников света. Как быстрее оценить имеющийся в изображении оттенок. На какие нюансы нужно обратить внимание. Как цвет зависит от профиля рабочего пространства. В чем плюсы и минусы оценки цвета по значениям RGB, CMYK и Lab. Об этом и расскажет известный специалист по цветокоррекции и допечатной подготовке, преподаватель Profileschool, Андрей Журавлев.
Продолжительность: 02:17:09
Качество видео: WEBRip
Видео: AVC/H.264, 1812х1080, ~1671 Кбит/сек
Аудио: AAC, 2 ch, 126 Кбит/сек, CBR

Mediainfo:

Код:
Полное имя                               : D:\Adobe\Фотошоп\Видео-Ютуб\Журавлев Алексей\Мастер-класс. Цветокоррекция по числам. Андрей Журавлев.mp4
Формат                                   : MPEG-4
Профиль формата                          : Base Media
Идентификатор кодека                     : isom (isom/iso2/avc1/mp41)
Размер файла                             : 1,73 Гбайт
Продолжительность                        : 2 ч. 17 м.
Общий поток                              : 1804 Кбит/сек
Программа кодирования                    : Lavf55.22.100
Идентификатор                            : 1
Формат                                   : AVC
Формат/Информация                        : Advanced Video Codec
Профиль формата                          : [email protected]
Параметр CABAC формата                   : Да
Параметр ReFrames формата                : 3 кадра
Идентификатор кодека                     : avc1
Идентификатор кодека/Информация          : Advanced Video Coding
Продолжительность                        : 2 ч. 17 м.
Битрейт                                  : 1671 Кбит/сек
Ширина                                   : 1812 пикселей
Высота                                   : 1080 пикселей
Соотношение сторон                       : 5:3
Режим частоты кадров                     : Постоянный
Частота кадров                           : 30,000 кадров/сек
Цветовое пространство                    : YUV
Субдискретизация насыщенности            : 4:2:0
Битовая глубина                          : 8 бит
Тип развёртки                            : Прогрессивная
Бит/(Пиксели*Кадры)                      : 0.028
Размер потока                            : 1,60 Гбайт (93%)
Идентификатор                            : 2
Формат                                   : AAC
Формат/Информация                        : Advanced Audio Codec
Профиль формата                          : LC
Идентификатор кодека                     : 40
Продолжительность                        : 2 ч. 17 м.
Вид битрейта                             : Постоянный
Битрейт                                  : 126 Кбит/сек
Каналы                                   : 2 канала
Расположение каналов                     : Front: L R
Частота                                  : 44,1 КГц
Частота кадров                           : 43,066 кадра/сек (1024 spf)
Метод сжатия                             : С потерями
Размер потока                            : 123 Мбайт (7%)
Default                                  : Да
Alternate group                          : 1
Скриншоты:
       
Вне форума [Профиль] [ЛС]
Похожие темы
Форум Тема Автор Торрент Отв. Посл. сообщение
./templates/default/images/folder_dl.gif Мультсериалы Фиксики / Серии 001-103 + все бонусы (Васико Бедошвили, Андрей Колпин) [2010-2015г.г., Компьютерная анимация, Детский, WEB-DL (720p)] Clavik
1 | 0

1 | 1554

32

2015-05-22 20:58
Jorginho Последнее
./templates/default/images/folder_dl.gif Приключения, детектив, боевик, триллер Андрей Константинов - Сборник произведений (96 книг) [1995-2016, Детектив, Боевик, FB2] Omen
1 | 0

0 | 857

1

2016-11-26 01:00
Omen Последнее
./templates/default/images/folder_dl.gif Фантастика, фэнтези, ужасы, мистика Андрей Ливадный | Край бездны (2018) [FB2] }{@R0N
1 | 0

0 | 384

5

2018-08-15 22:40
}{@R0N Последнее
./templates/default/images/folder_dl.gif Фантастика, фэнтези, ужасы, мистика Андрей Кардашов | Колониальные войны (2018) [MP3] }{@R0N
1 | 0

0 | 79

2

2018-10-30 22:06
}{@R0N Последнее
./templates/default/images/folder_dl.gif Обучающее видео Андрей Ракицкий | Гипноз для снижения веса по методу GSI (5 сеансов, похудение) (2018) [MP3] }{@R0N
1 | 0

0 | 213

1

2018-11-10 21:06
}{@R0N Последнее
Показать сообщения:    
Ответить на тему

Текущее время: Сегодня 12:19

Часовой пояс: GMT + 3



Вы не можете начинать темы
Вы не можете отвечать на сообщения
Вы не можете редактировать свои сообщения
Вы не можете удалять свои сообщения
Вы не можете голосовать в опросах
Вы не можете прикреплять файлы к сообщениям
Вы не можете скачивать файлы