Сегодня идет свободное скачивание без начисления Download

Андрей Журавлев. | Мастер-класс. Цветокоррекция по числам. (2013) WEBRip [H.264]

Ответить на тему
 
Автор
Сообщение

moralis ®

Пол:

Стаж: 2 года 7 месяцев

Сообщений: 1695

Торрент-статистика

Пост 03-Апр-2016 14:30

[Цитировать]

Мастер-класс. Цветокоррекция по числам. - Автор (режиссер): Андрей Журавлев.
Жанр: Обучающее видео
Описание:
Как формируется цвет из яркостей красного, зеленого и синего источников света. Как быстрее оценить имеющийся в изображении оттенок. На какие нюансы нужно обратить внимание. Как цвет зависит от профиля рабочего пространства. В чем плюсы и минусы оценки цвета по значениям RGB, CMYK и Lab. Об этом и расскажет известный специалист по цветокоррекции и допечатной подготовке, преподаватель Profileschool, Андрей Журавлев.
Продолжительность: 02:17:09
Качество видео: WEBRip
Видео: AVC/H.264, 1812х1080, ~1671 Кбит/сек
Аудио: AAC, 2 ch, 126 Кбит/сек, CBR

Mediainfo:

Код:
Полное имя                               : D:\Adobe\Фотошоп\Видео-Ютуб\Журавлев Алексей\Мастер-класс. Цветокоррекция по числам. Андрей Журавлев.mp4
Формат                                   : MPEG-4
Профиль формата                          : Base Media
Идентификатор кодека                     : isom (isom/iso2/avc1/mp41)
Размер файла                             : 1,73 Гбайт
Продолжительность                        : 2 ч. 17 м.
Общий поток                              : 1804 Кбит/сек
Программа кодирования                    : Lavf55.22.100
Идентификатор                            : 1
Формат                                   : AVC
Формат/Информация                        : Advanced Video Codec
Профиль формата                          : [email protected]
Параметр CABAC формата                   : Да
Параметр ReFrames формата                : 3 кадра
Идентификатор кодека                     : avc1
Идентификатор кодека/Информация          : Advanced Video Coding
Продолжительность                        : 2 ч. 17 м.
Битрейт                                  : 1671 Кбит/сек
Ширина                                   : 1812 пикселей
Высота                                   : 1080 пикселей
Соотношение сторон                       : 5:3
Режим частоты кадров                     : Постоянный
Частота кадров                           : 30,000 кадров/сек
Цветовое пространство                    : YUV
Субдискретизация насыщенности            : 4:2:0
Битовая глубина                          : 8 бит
Тип развёртки                            : Прогрессивная
Бит/(Пиксели*Кадры)                      : 0.028
Размер потока                            : 1,60 Гбайт (93%)
Идентификатор                            : 2
Формат                                   : AAC
Формат/Информация                        : Advanced Audio Codec
Профиль формата                          : LC
Идентификатор кодека                     : 40
Продолжительность                        : 2 ч. 17 м.
Вид битрейта                             : Постоянный
Битрейт                                  : 126 Кбит/сек
Каналы                                   : 2 канала
Расположение каналов                     : Front: L R
Частота                                  : 44,1 КГц
Частота кадров                           : 43,066 кадра/сек (1024 spf)
Метод сжатия                             : С потерями
Размер потока                            : 123 Мбайт (7%)
Default                                  : Да
Alternate group                          : 1
Скриншоты:
       
Вне форума [Профиль] [ЛС]
Похожие темы
Форум Тема Автор Торрент Отв. Посл. сообщение
./templates/default/images/folder_dl.gif Фантастика, фэнтези, ужасы, мистика Андрей Валентинов - Дезертир [Сергей Горбунов, 2004] [MP3] Omen
0 | 1

0 | 900

0

2012-05-09 21:59
Omen Последнее
./templates/default/images/folder_dl.gif Мультимедийные приложения Андрей Бернацкий и Андрей Кудлай | Интернет-магазин под ключ [2013] [ISO] sashau
0 | 1

0 | 98

3

2013-05-22 16:40
sashau Последнее
./templates/default/images/folder_dl.gif Обучающее видео Андрей Жуков | Работа с естественным и импульсным светом в различных условиях (2014) PCRec Omen
1 | 0

0 | 1409

37

2014-11-02 23:59
Omen Последнее
./templates/default/images/folder_dl.gif Фантастика, фэнтези, ужасы, мистика Васильев Андрей - Файролл 1, Игра не ради игры [Юрий Сорокин (ЛИ0, (ЛИ), 2014 г., 32 kbps, MP3] Omen
0 | 1

0 | 708

0

2015-03-27 03:00
Omen Последнее
./templates/default/images/folder_dl.gif Фантастика, фэнтези, ужасы, мистика Васильев Андрей - Файролл 3, Файролл. Край холодных ветров [1-2 из 26 ] [Юрий Сорокин, 2014 г., 128 kbps, MP3] Omen
0 | 1

0 | 693

0

2015-05-06 18:02
Omen Последнее
./templates/default/images/folder_dl.gif Фантастика, фэнтези, ужасы, мистика Васильев Андрей - Файролл 4, Файролл [Сорокин Юрий(ЛИ), (ЛИ), 2014 г., 128 kbps, MP3] Omen
0 | 1

0 | 722

0

2015-06-06 00:47
Omen Последнее
./templates/default/images/folder_dl.gif Произведения отечественных авторов Павел Корнев, Андрей Круз - Приграничье 8. Хмель и Клондайк [Андрей Кравец, 2016 г., 128 kbps, MP3] Omen
1 | 0

0 | 1319

12

2015-12-06 06:11
Omen Последнее
./templates/default/images/folder_dl.gif Фантастика, фэнтези, ужасы, мистика Корнев Павел - Приграничье 5, Ледяная цитадель [Андрей Кравец, 2013 г., 128 kbps, MP3] Omen
1 | 0

0 | 1035

25

2016-01-13 00:01
Omen Последнее
./templates/default/images/folder_dl.gif Фантастика, фэнтези, ужасы, мистика Павел Корнев, Андрей Круз - Приграничье 9. Холод, пиво, дробовик [Андрей Кравец, 2016 г., 128 kbps, MP3] Omen
1 | 0

0 | 599

4

2016-02-14 21:00
Omen Последнее
./templates/default/images/folder_dl.gif Обучающее видео Андрей Лошкарев | Всё по уму на стройке. Комплект курсов (2015-2016) PCRec Omen
1 | 0

0 | 443

13

2016-03-09 09:16
Omen Последнее
Показать сообщения:    
Ответить на тему

Текущее время: Сегодня 18:59

Часовой пояс: GMT + 3



Вы не можете начинать темы
Вы не можете отвечать на сообщения
Вы не можете редактировать свои сообщения
Вы не можете удалять свои сообщения
Вы не можете голосовать в опросах
Вы не можете прикреплять файлы к сообщениям
Вы не можете скачивать файлы