Сегодня идет свободное скачивание без начисления Download

Андрей Журавлев. | Мастер-класс. Цветокоррекция по числам. (2013) WEBRip [H.264]

Ответить на тему
 
Автор
Сообщение

moralis ®

Пол:

Стаж: 2 года 9 месяцев

Сообщений: 1695

Торрент-статистика

Пост 03-Апр-2016 14:30

[Цитировать]

Мастер-класс. Цветокоррекция по числам. - Автор (режиссер): Андрей Журавлев.
Жанр: Обучающее видео
Описание:
Как формируется цвет из яркостей красного, зеленого и синего источников света. Как быстрее оценить имеющийся в изображении оттенок. На какие нюансы нужно обратить внимание. Как цвет зависит от профиля рабочего пространства. В чем плюсы и минусы оценки цвета по значениям RGB, CMYK и Lab. Об этом и расскажет известный специалист по цветокоррекции и допечатной подготовке, преподаватель Profileschool, Андрей Журавлев.
Продолжительность: 02:17:09
Качество видео: WEBRip
Видео: AVC/H.264, 1812х1080, ~1671 Кбит/сек
Аудио: AAC, 2 ch, 126 Кбит/сек, CBR

Mediainfo:

Код:
Полное имя                               : D:\Adobe\Фотошоп\Видео-Ютуб\Журавлев Алексей\Мастер-класс. Цветокоррекция по числам. Андрей Журавлев.mp4
Формат                                   : MPEG-4
Профиль формата                          : Base Media
Идентификатор кодека                     : isom (isom/iso2/avc1/mp41)
Размер файла                             : 1,73 Гбайт
Продолжительность                        : 2 ч. 17 м.
Общий поток                              : 1804 Кбит/сек
Программа кодирования                    : Lavf55.22.100
Идентификатор                            : 1
Формат                                   : AVC
Формат/Информация                        : Advanced Video Codec
Профиль формата                          : [email protected]
Параметр CABAC формата                   : Да
Параметр ReFrames формата                : 3 кадра
Идентификатор кодека                     : avc1
Идентификатор кодека/Информация          : Advanced Video Coding
Продолжительность                        : 2 ч. 17 м.
Битрейт                                  : 1671 Кбит/сек
Ширина                                   : 1812 пикселей
Высота                                   : 1080 пикселей
Соотношение сторон                       : 5:3
Режим частоты кадров                     : Постоянный
Частота кадров                           : 30,000 кадров/сек
Цветовое пространство                    : YUV
Субдискретизация насыщенности            : 4:2:0
Битовая глубина                          : 8 бит
Тип развёртки                            : Прогрессивная
Бит/(Пиксели*Кадры)                      : 0.028
Размер потока                            : 1,60 Гбайт (93%)
Идентификатор                            : 2
Формат                                   : AAC
Формат/Информация                        : Advanced Audio Codec
Профиль формата                          : LC
Идентификатор кодека                     : 40
Продолжительность                        : 2 ч. 17 м.
Вид битрейта                             : Постоянный
Битрейт                                  : 126 Кбит/сек
Каналы                                   : 2 канала
Расположение каналов                     : Front: L R
Частота                                  : 44,1 КГц
Частота кадров                           : 43,066 кадра/сек (1024 spf)
Метод сжатия                             : С потерями
Размер потока                            : 123 Мбайт (7%)
Default                                  : Да
Alternate group                          : 1
Скриншоты:
       
Вне форума [Профиль] [ЛС]
Похожие темы
Форум Тема Автор Торрент Отв. Посл. сообщение
./templates/default/images/folder_dl.gif Архив Иван Андреевич Крылов | Полное собрание сочинений в 3-х томах + Полное собрание басен [1945] [PDF] Omen
1 | 0

0 | 818

3

2011-10-04 19:11
Omen Последнее
./templates/default/images/folder_dl.gif Художественная литература Загорцев Андрей - Особая офицерская группа [Один, 2011] VHS
1 | 0

0 | 1077

1

2012-03-11 18:53
VHS Последнее
./templates/default/images/folder_dl.gif Фантастика, фэнтези, ужасы, мистика Андрей Буторин | Дочь небесного духа (вселенная "Метро 2033", Север - 3) [2013] [MP3] UndegraundMen
0 | 1

0 | 657

2

2013-03-18 18:28
UndegraundMen Последнее
./templates/default/images/folder_dl.gif Фильмы 2001-2010 Отставник [Трилогия] (Андрей Щербинин, Игорь Москвитин) [2009, 2010, 2011, боевик, DVDRip] O.S.A.
1 | 0

0 | 1231

8

2013-11-05 09:36
O.S.A. Последнее
./templates/default/images/folder_dl.gif Обучающее видео Андрей Жуков | Работа с естественным и импульсным светом в различных условиях (2014) PCRec Omen
2 | 0

0 | 1560

38

2014-11-02 23:59
Omen Последнее
./templates/default/images/folder_dl.gif Сатира, Юмор Андрей Данилов | Homo Navicus, человек флота (2012) [FB2] Aikivas
1 | 0

0 | 999

5

2015-08-14 20:58
Aikivas Последнее
./templates/default/images/folder_dl.gif Произведения отечественных авторов Павел Корнев, Андрей Круз - Приграничье 8. Хмель и Клондайк [Андрей Кравец, 2016 г., 128 kbps, MP3] Omen
1 | 0

0 | 1595

13

2015-12-06 06:11
Omen Последнее
./templates/default/images/folder_dl.gif Фантастика, фэнтези, ужасы, мистика Корнев Павел - Приграничье 5, Ледяная цитадель [Андрей Кравец, 2013 г., 128 kbps, MP3] Omen
1 | 0

0 | 1225

26

2016-01-13 00:01
Omen Последнее
./templates/default/images/folder_dl.gif Фантастика, фэнтези, ужасы, мистика Павел Корнев, Андрей Круз - Приграничье 9. Холод, пиво, дробовик [Андрей Кравец, 2016 г., 128 kbps, MP3] Omen
1 | 0

0 | 784

5

2016-02-14 21:00
Omen Последнее
./templates/default/images/folder_dl.gif Фантастика, фэнтези, ужасы, мистика Андрей Земляной, Борис Орлов | Стратег (2016) [FB2] moralis
2 | 0

1 | 437

2

Сегодня 01:04
Russfreeman Последнее
Показать сообщения:    
Ответить на тему

Текущее время: Сегодня 17:21

Часовой пояс: GMT + 3



Вы не можете начинать темы
Вы не можете отвечать на сообщения
Вы не можете редактировать свои сообщения
Вы не можете удалять свои сообщения
Вы не можете голосовать в опросах
Вы не можете прикреплять файлы к сообщениям
Вы не можете скачивать файлы