Сегодня идет свободное скачивание без начисления Download

Андрей Журавлев. | Мастер-класс. Цветокоррекция по числам. (2013) WEBRip [H.264]

Ответить на тему
 
Автор
Сообщение

moralis ®

Пол:

Стаж: 3 года 1 месяц

Сообщений: 1689

Торрент-статистика

Пост 03-Апр-2016 14:30

[Цитировать]

Мастер-класс. Цветокоррекция по числам. - Автор (режиссер): Андрей Журавлев.
Жанр: Обучающее видео
Описание:
Как формируется цвет из яркостей красного, зеленого и синего источников света. Как быстрее оценить имеющийся в изображении оттенок. На какие нюансы нужно обратить внимание. Как цвет зависит от профиля рабочего пространства. В чем плюсы и минусы оценки цвета по значениям RGB, CMYK и Lab. Об этом и расскажет известный специалист по цветокоррекции и допечатной подготовке, преподаватель Profileschool, Андрей Журавлев.
Продолжительность: 02:17:09
Качество видео: WEBRip
Видео: AVC/H.264, 1812х1080, ~1671 Кбит/сек
Аудио: AAC, 2 ch, 126 Кбит/сек, CBR

Mediainfo:

Код:
Полное имя                               : D:\Adobe\Фотошоп\Видео-Ютуб\Журавлев Алексей\Мастер-класс. Цветокоррекция по числам. Андрей Журавлев.mp4
Формат                                   : MPEG-4
Профиль формата                          : Base Media
Идентификатор кодека                     : isom (isom/iso2/avc1/mp41)
Размер файла                             : 1,73 Гбайт
Продолжительность                        : 2 ч. 17 м.
Общий поток                              : 1804 Кбит/сек
Программа кодирования                    : Lavf55.22.100
Идентификатор                            : 1
Формат                                   : AVC
Формат/Информация                        : Advanced Video Codec
Профиль формата                          : [email protected]
Параметр CABAC формата                   : Да
Параметр ReFrames формата                : 3 кадра
Идентификатор кодека                     : avc1
Идентификатор кодека/Информация          : Advanced Video Coding
Продолжительность                        : 2 ч. 17 м.
Битрейт                                  : 1671 Кбит/сек
Ширина                                   : 1812 пикселей
Высота                                   : 1080 пикселей
Соотношение сторон                       : 5:3
Режим частоты кадров                     : Постоянный
Частота кадров                           : 30,000 кадров/сек
Цветовое пространство                    : YUV
Субдискретизация насыщенности            : 4:2:0
Битовая глубина                          : 8 бит
Тип развёртки                            : Прогрессивная
Бит/(Пиксели*Кадры)                      : 0.028
Размер потока                            : 1,60 Гбайт (93%)
Идентификатор                            : 2
Формат                                   : AAC
Формат/Информация                        : Advanced Audio Codec
Профиль формата                          : LC
Идентификатор кодека                     : 40
Продолжительность                        : 2 ч. 17 м.
Вид битрейта                             : Постоянный
Битрейт                                  : 126 Кбит/сек
Каналы                                   : 2 канала
Расположение каналов                     : Front: L R
Частота                                  : 44,1 КГц
Частота кадров                           : 43,066 кадра/сек (1024 spf)
Метод сжатия                             : С потерями
Размер потока                            : 123 Мбайт (7%)
Default                                  : Да
Alternate group                          : 1
Скриншоты:
       
Вне форума [Профиль] [ЛС]
Похожие темы
Форум Тема Автор Торрент Отв. Посл. сообщение
./templates/default/images/folder_dl.gif Техническая и научно-популярная литература Андрей Кашкаров | Современные сигнализации для дома и автомобиля (2014) [DJVU] Omen
1 | 0

0 | 866

11

2014-08-24 19:34
Omen Последнее
./templates/default/images/folder_dl.gif Обучающее видео Андрей Жуков | Работа с естественным и импульсным светом в различных условиях (2014) PCRec Omen
1 | 0

0 | 1791

39

2014-11-02 23:59
Omen Последнее
./templates/default/images/folder_dl.gif Медицина и Здоровье Андрей Левшинов | Йога за 10 минут. Упражнения, которые вернут бодрость, омолодят тело, предотвратят болезни! (2016) [FB2] moralis
1 | 0

0 | 763

6

2016-01-19 22:37
moralis Последнее
./templates/default/images/folder_dl.gif Обучающее видео Андрей Зейгарник | Композиция и психология восприятия (2016) PCRec Omen
1 | 0

0 | 1226

25

2016-03-09 21:43
Omen Последнее
./templates/default/images/folder_dl.gif Иностранные мультфильмы Ледниковый период / Ice Age (Крис Уэдж / Chris Wedge, Карлос Салдана / Carlos Saldanha/) [2002, США, мультфильм, BDRip] AVO (Сергей Визгунов) + AVO (Андрей Гаврилов) + Original Eng Omen
1 | 0

0 | 664

3

2016-09-23 01:00
Omen Последнее
./templates/default/images/folder_dl.gif Фантастика, фэнтези, ужасы, мистика Андрей Круз | После (2017) [FB2] }{@R0N
1 | 0

1 | 3993

18

2018-02-22 01:03
Russfreeman Последнее
./templates/default/images/folder_dl.gif Фантастика, фэнтези, ужасы, мистика Андрей Ливадный | Нейр (2017) [MP3] }{@R0N
1 | 0

0 | 8467

5

2017-09-19 15:32
}{@R0N Последнее
./templates/default/images/folder_dl.gif Фантастика, фэнтези, ужасы, мистика Андрей Никитин | Поглотитель (2017) [FB2] }{@R0N
1 | 0

0 | 389

8

2018-01-12 11:06
}{@R0N Последнее
./templates/default/images/folder_dl.gif Сатира, Юмор Андрей Данилов (З. Х. Травило) | Homo Navicus, человек флота (2012) [MP3] }{@R0N
1 | 0

0 | 198

4

2018-03-04 15:00
}{@R0N Последнее
./templates/default/images/folder_dl.gif Фантастика, фэнтези, ужасы, мистика Андрей Белянин | Мой учитель Лис (2018) [MP3] }{@R0N
1 | 0

0 | 135

7

2018-04-14 00:04
}{@R0N Последнее
Показать сообщения:    
Ответить на тему

Текущее время: Сегодня 20:32

Часовой пояс: GMT + 3



Вы не можете начинать темы
Вы не можете отвечать на сообщения
Вы не можете редактировать свои сообщения
Вы не можете удалять свои сообщения
Вы не можете голосовать в опросах
Вы не можете прикреплять файлы к сообщениям
Вы не можете скачивать файлы