Today is a free download without charge Download

Комиссар полиции / The Commish / Сезон: 5 / Серии: 1 из 4 (Майлз Уоткинс, Джеймс Уитмор мл.) [1995, драма, комедия, криминал, детектив,, VHSRip] AVO (Сергей Визгунов)

Reply to topic
 
Author
Message

Omen ®

Longevity: 7 years 5 months

Posts: 181087

Торрент-статистика

Post 11-Apr-2016 09:33

[Quote]

Комиссар полиции / The Commish
Год выпуска: 1995
Страна: Канада, США
Жанр: драма, комедия, криминал, детектив,
Продолжительность: 01:32:51
Перевод: Авторский (одноголосый закадровый) Сергей Визгунов
Режиссёр: Майлз Уоткинс, Джеймс Уитмор мл.
В ролях: Майкл Чиклис
Тереса Сальдана
Каж-Эрик Эриксен
Джеффри Ноффтс
Мелинда МакГроу
Джейсон Шомбинг
Джон Циган
Dayna Cornborough
Justine Cornborough
Джина Белафонте
Описание: Главный герой сериала — комиссар полиции Тони Скали, при расследовании преступлений предпочитающий использовать интеллект и хитрость, вместо грубой силы.
Доп. информация: Оцифровка кассеты от Анна57
Сэмпл: сделать семпл не получилось
Качество: VHSRip
Формат: MPG
Видео: MPEG2 Video 720x576 25fps Bit rate 6 645 Kbps
Аудио: MP3 48000Hz stereo 128kbps
Субтитры: отсутствуют

Список серий

Сезон 5
1995, эпизодов: 4
Эпизод 1
In the Shadows of the Gallows

MediaInfo

commich.mpg
Format : MPEG-PS
File size : 4.50 GiB
Duration : 1h 33mn
Overall bit rate mode : Variable
Overall bit rate : 6 911 Kbps
Video
ID : 224 (0xE0)
Format : MPEG Video
Format version : Version 2
Format profile : [email protected]
Format settings, BVOP : No
Format settings, Matrix : Default
Format settings, GOP : Variable
Duration : 1h 33mn
Bit rate mode : Variable
Bit rate : 6 645 Kbps
Maximum bit rate : 6 000 Kbps
Width : 720 pixels
Height : 576 pixels
Display aspect ratio : 5:4
Frame rate : 25.000 fps
Standard : PAL
Color space : YUV
Chroma subsampling : 4:2:0
Bit depth : 8 bits
Scan type : Progressive
Compression mode : Lossy
Bits/(Pixel*Frame) : 0.641
Time code of first frame : 00:00:00:00
Time code source : Group of pictures header
GOP, Open/Closed : Open
Stream size : 4.32 GiB (96%)
Audio
ID : 192 (0xC0)
Format : MPEG Audio
Format version : Version 1
Format profile : Layer 3
Duration : 1h 33mn
Bit rate mode : Constant
Bit rate : 128 Kbps
Channel(s) : 2 channels
Sampling rate : 48.0 KHz
Compression mode : Lossy
Delay relative to video : -307ms
Stream size : 85.3 MiB (2%)

Скриншоты

Other forum [Profile] [PM]
Display posts from previous:    
Reply to topic

The time now is: Today 20:44

All times are GMT + 3 Hours



You cannot post new topics in this forum
You cannot reply to topics in this forum
You cannot edit your posts in this forum
You cannot delete your posts in this forum
You cannot vote in polls in this forum
You cannot attach files in this forum
You cannot download files in this forum