Today is a free download without charge Download

(Rockabilly) [CD] Lee Rocker - Night Train To Memphis - 2012, FLAC (tracks+.cue), lossless

Reply to topic
 
Author
Message

Omen ®

Longevity: 7 years 1 month

Posts: 181090

Торрент-статистика

Post 14-Jul-2016 01:01

[Quote]

Lee Rocker - Night Train To Memphis
Жанр: Rockabilly
Носитель: CD
Год издания: 2012
Издатель: Upright Records
Страна исполнителя: US
Аудиокодек: FLAC (*.flac)
Тип рипа: tracks+.cue
Битрейт аудио: lossless
Продолжительность: 00:32:57
Релизер: Uhepcat
Наличие сканов в содержимом раздачи: нет
Треклист:
01. Rockabilly Boogie 2:48
02. Night Train to Memphis 4:58
03. Slap the Bass 1:56
04. Twenty Flight Rock 1:52
05. Wild Child 1:56
06. Honey Don't 2:36
07. That's Alright Mama/Blue Moon 3:35
08. Tear in My Beer 2:27
09. Lonesome Tears 2:00
10. Built For Speed 3:51
11. So Sad 2:38
12. All I Have to Do Is Dream 2:29

Лог создания рипа

Exact Audio Copy V1.0 beta 3 from 29. August 2011
EAC extraction logfile from 15. December 2014, 10:46
Lee Rocker / Night Train To Memphis
Used drive : PLEXTOR DVDR PX-891SAW Adapter: 5 ID: 0
Read mode : SecureUtilize accurate stream : YesDefeat audio cache : YesMake use of C2 pointers : No
Read offset correction : 48Overread into Lead-In and Lead-Out : NoFill up missing offset samples with silence : YesDelete leading and trailing silent blocks : NoNull samples used in CRC calculations : YesUsed interface : Native Win32 interface for Win NT & 2000Gap handling : Appended to previous track
Used output format : User Defined EncoderSelected bitrate : 896 kBit/sQuality : HighAdd ID3 tag : NoCommand line compressor : C:\Program Files (x86)\FLAC\flac.exeAdditional command line options : -8 -V -T "ARTIST=%artist%" -T "TITLE=%title%" -T "ALBUM=%albumtitle%" -T "DATE=%year%" -T "TRACKNUMBER=%tracknr%" -T "GENRE=%genre%" -T "PERFORMER=%albuminterpret%" -T "COMPOSER=%composer%" %haslyrics%--tag-from-file=LYRICS="%lyricsfile%"%haslyrics% -T "ALBUMARTIST=%albumartist%" -T "DISCNUMBER=%cdnumber%" -T "TOTALDISCS=%totalcds%" -T "TOTALTRACKS=%numtracks%" -T "COMMENT=%comment%" %source% -o %dest%
TOC of the extracted CD
Track | Start | Length | Start sector | End sector --------------------------------------------------------- 1 | 0:00.00 | 2:48.21 | 0 | 12620 2 | 2:48.21 | 4:57.74 | 12621 | 34969 3 | 7:46.20 | 1:55.55 | 34970 | 43649 4 | 9:42.00 | 1:51.30 | 43650 | 52004 5 | 11:33.30 | 1:55.32 | 52005 | 60661 6 | 13:28.62 | 2:35.40 | 60662 | 72326 7 | 16:04.27 | 3:34.47 | 72327 | 88423 8 | 19:38.74 | 2:27.29 | 88424 | 99477 9 | 22:06.28 | 1:59.19 | 99478 | 108421 10 | 24:05.47 | 3:51.19 | 108422 | 125765 11 | 27:56.66 | 2:37.57 | 125766 | 137597 12 | 30:34.48 | 2:28.10 | 137598 | 148707
Track 1
Filename U:\- = Flac = -\- = New Rips = -\Lee Rocker - Night Train To Memphis (2012) [Flac]\01 - Rockabilly Boogie.wav
Pre-gap length 0:00:02.00
Peak level 100.0 % Extraction speed 2.6 X Track quality 99.9 % Test CRC D42E6DD8 Copy CRC D42E6DD8 Track not present in AccurateRip database Copy OK
Track 2
Filename U:\- = Flac = -\- = New Rips = -\Lee Rocker - Night Train To Memphis (2012) [Flac]\02 - Night Train To Memphis.wav
Pre-gap length 0:00:03.00
Peak level 100.0 % Extraction speed 5.1 X Track quality 100.0 % Test CRC BE308FA3 Copy CRC BE308FA3 Track not present in AccurateRip database Copy OK
Track 3
Filename U:\- = Flac = -\- = New Rips = -\Lee Rocker - Night Train To Memphis (2012) [Flac]\03 - Slap The Bass.wav
Pre-gap length 0:00:03.00
Peak level 100.0 % Extraction speed 4.7 X Track quality 100.0 % Test CRC E70CF781 Copy CRC E70CF781 Track not present in AccurateRip database Copy OK
Track 4
Filename U:\- = Flac = -\- = New Rips = -\Lee Rocker - Night Train To Memphis (2012) [Flac]\04 - Twenty Flight Rock.wav
Pre-gap length 0:00:03.00
Peak level 100.0 % Extraction speed 4.8 X Track quality 100.0 % Test CRC B3A2C90A Copy CRC B3A2C90A Track not present in AccurateRip database Copy OK
Track 5
Filename U:\- = Flac = -\- = New Rips = -\Lee Rocker - Night Train To Memphis (2012) [Flac]\05 - Wild Child.wav
Pre-gap length 0:00:03.00
Peak level 100.0 % Extraction speed 5.0 X Track quality 100.0 % Test CRC 736172C4 Copy CRC 736172C4 Track not present in AccurateRip database Copy OK
Track 6
Filename U:\- = Flac = -\- = New Rips = -\Lee Rocker - Night Train To Memphis (2012) [Flac]\06 - Honey Don't.wav
Pre-gap length 0:00:03.00
Peak level 100.0 % Extraction speed 5.6 X Track quality 100.0 % Test CRC 0FFD6E58 Copy CRC 0FFD6E58 Track not present in AccurateRip database Copy OK
Track 7
Filename U:\- = Flac = -\- = New Rips = -\Lee Rocker - Night Train To Memphis (2012) [Flac]\07 - That's Alright Mama,Blue Moon.wav
Pre-gap length 0:00:03.00
Peak level 100.0 % Extraction speed 6.2 X Track quality 100.0 % Test CRC 0B9C76BE Copy CRC 0B9C76BE Track not present in AccurateRip database Copy OK
Track 8
Filename U:\- = Flac = -\- = New Rips = -\Lee Rocker - Night Train To Memphis (2012) [Flac]\08 - Tear In My Bear.wav
Pre-gap length 0:00:03.00
Peak level 100.0 % Extraction speed 3.7 X Track quality 99.9 % Test CRC 8D911FEF Copy CRC 8D911FEF Track not present in AccurateRip database Copy OK
Track 9
Filename U:\- = Flac = -\- = New Rips = -\Lee Rocker - Night Train To Memphis (2012) [Flac]\09 - Lonesome Tears.wav
Pre-gap length 0:00:03.00
Peak level 100.0 % Extraction speed 6.0 X Track quality 100.0 % Test CRC E232E87E Copy CRC E232E87E Track not present in AccurateRip database Copy OK
Track 10
Filename U:\- = Flac = -\- = New Rips = -\Lee Rocker - Night Train To Memphis (2012) [Flac]\10 - Built For Speed.wav
Pre-gap length 0:00:03.00
Peak level 100.0 % Extraction speed 7.0 X Track quality 100.0 % Test CRC 7B69AD91 Copy CRC 7B69AD91 Track not present in AccurateRip database Copy OK
Track 11
Filename U:\- = Flac = -\- = New Rips = -\Lee Rocker - Night Train To Memphis (2012) [Flac]\11 - So Sad.wav
Pre-gap length 0:00:03.00
Peak level 79.4 % Extraction speed 6.8 X Track quality 100.0 % Test CRC 2EF8976C Copy CRC 2EF8976C Track not present in AccurateRip database Copy OK
Track 12
Filename U:\- = Flac = -\- = New Rips = -\Lee Rocker - Night Train To Memphis (2012) [Flac]\12 - All I Have To Do Is Dream.wav
Pre-gap length 0:00:03.00
Peak level 79.4 % Extraction speed 6.9 X Track quality 100.0 % Test CRC 557EE28A Copy CRC 557EE28A Track not present in AccurateRip database Copy OK
None of the tracks are present in the AccurateRip database
No errors occurred
End of status report
==== Log checksum 889E852C53896F25E157A7295CCA8077179A9FFE93C1BA058B6E4D9351E336B8 ====

(.CUE)

REM GENRE rockabillyREM DATE 2012REM DISCID AF07BE0CREM COMMENT "ExactAudioCopy v1.0b3"PERFORMER "Lee Rocker"TITLE "Night Train To Memphis"FILE "01 - Rockabilly Boogie.wav" WAVE TRACK 01 AUDIO TITLE "Rockabilly Boogie" PERFORMER "Lee Rocker" INDEX 01 00:00:00 TRACK 02 AUDIO TITLE "Night Train To Memphis" PERFORMER "Lee Rocker" INDEX 00 02:45:21FILE "02 - Night Train To Memphis.wav" WAVE INDEX 01 00:00:00 TRACK 03 AUDIO TITLE "Slap The Bass" PERFORMER "Lee Rocker" INDEX 00 04:54:74FILE "03 - Slap The Bass.wav" WAVE INDEX 01 00:00:00 TRACK 04 AUDIO TITLE "Twenty Flight Rock" PERFORMER "Lee Rocker" INDEX 00 01:52:55FILE "04 - Twenty Flight Rock.wav" WAVE INDEX 01 00:00:00 TRACK 05 AUDIO TITLE "Wild Child" PERFORMER "Lee Rocker" INDEX 00 01:48:30FILE "05 - Wild Child.wav" WAVE INDEX 01 00:00:00 TRACK 06 AUDIO TITLE "Honey Don't" PERFORMER "Lee Rocker" INDEX 00 01:52:32FILE "06 - Honey Don't.wav" WAVE INDEX 01 00:00:00 TRACK 07 AUDIO TITLE "That's Alright Mama/Blue Moon" PERFORMER "Lee Rocker" INDEX 00 02:32:40FILE "07 - That's Alright Mama,Blue Moon.wav" WAVE INDEX 01 00:00:00 TRACK 08 AUDIO TITLE "Tear In My Bear" PERFORMER "Lee Rocker" INDEX 00 03:31:47FILE "08 - Tear In My Bear.wav" WAVE INDEX 01 00:00:00 TRACK 09 AUDIO TITLE "Lonesome Tears" PERFORMER "Lee Rocker" INDEX 00 02:24:29FILE "09 - Lonesome Tears.wav" WAVE INDEX 01 00:00:00 TRACK 10 AUDIO TITLE "Built For Speed" PERFORMER "Lee Rocker" INDEX 00 01:56:19FILE "10 - Built For Speed.wav" WAVE INDEX 01 00:00:00 TRACK 11 AUDIO TITLE "So Sad" PERFORMER "Lee Rocker" INDEX 00 03:48:19FILE "11 - So Sad.wav" WAVE INDEX 01 00:00:00 TRACK 12 AUDIO TITLE "All I Have To Do Is Dream" PERFORMER "Lee Rocker" INDEX 00 02:34:57FILE "12 - All I Have To Do Is Dream.wav" WAVE INDEX 01 00:00:00

Лог проверки качества

AUDIOCHECKER v2.0 beta (build 457) - by Dester - [email protected]~~~~~~~~~~~~~~~~~~~~~~~~~~~~~~~~~~-=== НЕ РЕДАКТИРУЙТЕ ЭТОТ ФАЙЛ! ===-
Путь: ...\Lee Rocker - Night Train To Memphis - 2012[FLAC]
01 -=- 01 - Rockabilly Boogie.flac -=- CDDA (100%)02 -=- 02 - Night Train To Memphis.flac -=- CDDA (99%)03 -=- 03 - Slap The Bass.flac -=- CDDA (100%)04 -=- 04 - Twenty Flight Rock.flac -=- CDDA (99%)05 -=- 05 - Wild Child.flac -=- CDDA (100%)06 -=- 06 - Honey Don't.flac -=- CDDA (100%)07 -=- 07 - That's Alright Mama,Blue Moon.flac -=- CDDA (100%)08 -=- 08 - Tear In My Bear.flac -=- CDDA (100%)09 -=- 09 - Lonesome Tears.flac -=- CDDA (76%)10 -=- 10 - Built For Speed.flac -=- CDDA (100%)11 -=- 11 - So Sad.flac -=- CDDA (100%)12 -=- 12 - All I Have To Do Is Dream.flac -=- CDDA (100%)
Сводка 97,83% CDDA
172568324

Об альбоме

http://www.rhapsody.com/artist/lee-rocker/album/night-train-to-memphis
Участник Stray Cat, Ли Рокер (Leon Drucker, August 3, 1961), представляет альбом классических песен рокабилли — переделанный и исполненный в манере Ли Рокера.
Other forum [Profile] [PM]
Similar theme
Forum Topic Author Torrent Replies Last Post
./templates/default/images/folder_dl.gif Rock 'n' Rol (Rockabilly) The Hicksville Bombers - Voodoo Doll - 2015, MP3, 320 kbps Omen
1 | 0

0 | 1249

17

2015-07-13 03:37
Omen Latest
Display posts from previous:    
Reply to topic

The time now is: Today 06:33

All times are GMT + 3 Hours



You cannot post new topics in this forum
You cannot reply to topics in this forum
You cannot edit your posts in this forum
You cannot delete your posts in this forum
You cannot vote in polls in this forum
You cannot attach files in this forum
You cannot download files in this forum