Today is a free download without charge Download

(Classic Rock, Rock & Roll, Pop, Rock) Roy Orbison - Anthology - 2013, FLAC (image+.cue), lossless

Reply to topic
 
Author
Message

Omen ®

Longevity: 7 years 1 month

Posts: 181090

Торрент-статистика

Post 21-Jul-2016 01:00

[Quote]

Roy Orbison / Anthology
Жанр: Classic Rock, Rock & Roll, Pop, Rock
Страна-производитель диска (релиза): EU
Год издания: 2013
Издатель (лейбл): Not Now Music
Номер по каталогу: NOT3CD099
Аудиокодек: FLAC (*.flac)
Тип рипа: image+.cue
Битрейт аудио: lossless
Продолжительность: 02:22:03
Источник (релизер): Boris1
Наличие сканов в содержимом раздачи: да

CD 1

01. Only The Lonely (2:27)
02. Dream Baby (How Long Must I Dream) (2:34)
03. Crying (2:48 )
04. Lana (2:18 )
05. Working For The Man (2:27)
06. Let's Make A Memory (2:19)
07. Dance (2:53)
08. Evergreen (2:47)
09. Almost Eighteen (2:05)
10. With The Bug (2:28 )
11. Night Life (2:32)
12. Come Back To Me (My Love) (2:29)
13. The Actress (2:38 )
14. Love Star (3:01)
15. Here Comes That Song Again (2:45)
16. Mama (3:01)
17. The Great Pretender (3:02)
18. (I'd Be) A Legend In My Time (3:09)
19. Leah (2:40)
20. Blue Angel (2:52)

Лог создания рипа

Exact Audio Copy V1.0 beta 3 from 29. August 2011
EAC extraction logfile from 16. July 2016, 11:32
Roy Orbison / Anthology (CD1)
Used drive : PIONEER BD-RW BDR-TD03 Adapter: 0 ID: 1
Read mode : SecureUtilize accurate stream : YesDefeat audio cache : YesMake use of C2 pointers : No
Read offset correction : 667Overread into Lead-In and Lead-Out : NoFill up missing offset samples with silence : YesDelete leading and trailing silent blocks : NoNull samples used in CRC calculations : YesUsed interface : Native Win32 interface for Win NT & 2000
Used output format : User Defined EncoderSelected bitrate : 768 kBit/sQuality : HighAdd ID3 tag : NoCommand line compressor : C:\Program Files (x86)\Exact Audio Copy\FLAC\FLAC.EXEAdditional command line options : -6 -V -T "ARTIST=%artist%" -T "TITLE=%title%" -T "ALBUM=%albumtitle%" -T "DATE=%year%" -T "TRACKNUMBER=%tracknr%" -T "GENRE=%genre%" -T "COMMENT=%comment%" -T "BAND=%albuminterpret%" -T "ALBUMARTIST=%albuminterpret%" -T "COMPOSER=%composer%" %haslyrics%--tag-from-file=LYRICS="%lyricsfile%"%haslyrics% -T "DISCNUMBER=%cdnumber%" -T "TOTALDISCS=%totalcds%" -T "TOTALTRACKS=%numtracks%" %hascover%--picture="%coverfile%"%hascover% %source% -o %dest%
TOC of the extracted CD
Track | Start | Length | Start sector | End sector --------------------------------------------------------- 1 | 0:00.00 | 2:27.58 | 0 | 11082 2 | 2:27.58 | 2:34.32 | 11083 | 22664 3 | 5:02.15 | 2:48.39 | 22665 | 35303 4 | 7:50.54 | 2:18.12 | 35304 | 45665 5 | 10:08.66 | 2:27.47 | 45666 | 56737 6 | 12:36.38 | 2:19.02 | 56738 | 67164 7 | 14:55.40 | 2:53.74 | 67165 | 80213 8 | 17:49.39 | 2:47.00 | 80214 | 92738 9 | 20:36.39 | 2:05.45 | 92739 | 102158 10 | 22:42.09 | 2:28.23 | 102159 | 113281 11 | 25:10.32 | 2:32.20 | 113282 | 124701 12 | 27:42.52 | 2:29.24 | 124702 | 135900 13 | 30:12.01 | 2:38.62 | 135901 | 147812 14 | 32:50.63 | 3:01.34 | 147813 | 161421 15 | 35:52.22 | 2:45.17 | 161422 | 173813 16 | 38:37.39 | 3:01.08 | 173814 | 187396 17 | 41:38.47 | 3:02.61 | 187397 | 201107 18 | 44:41.33 | 3:09.24 | 201108 | 215306 19 | 47:50.57 | 2:40.57 | 215307 | 227363 20 | 50:31.39 | 2:52.30 | 227364 | 240293
Range status and errors
Selected range
Filename C:\Users\Deris\Desktop\kpnemo.eu\AntoRoy\CD1\Roy Orbison - Anthology (CD1).wav
Peak level 98.5 % Extraction speed 4.8 X Range quality 100.0 % Test CRC E692E32B Copy CRC E692E32B Copy OK
No errors occurred
AccurateRip summary
Track 1 accurately ripped (confidence 3) [59AAB63B] (AR v2)Track 2 accurately ripped (confidence 4) [E49B8B0D] (AR v2)Track 3 accurately ripped (confidence 4) [CD92D8E2] (AR v2)Track 4 accurately ripped (confidence 4) [8F7DADBE] (AR v2)Track 5 accurately ripped (confidence 4) [DA4DB9D8] (AR v2)Track 6 accurately ripped (confidence 4) [78E5399B] (AR v2)Track 7 accurately ripped (confidence 4) [C0AB434D] (AR v2)Track 8 accurately ripped (confidence 4) [9E06B013] (AR v2)Track 9 accurately ripped (confidence 4) [7C2F3B9E] (AR v2)Track 10 accurately ripped (confidence 4) [BDA6F672] (AR v2)Track 11 accurately ripped (confidence 4) [CA303BB8] (AR v2)Track 12 accurately ripped (confidence 4) [1CACF8CB] (AR v2)Track 13 accurately ripped (confidence 4) [89BEAFD6] (AR v2)Track 14 accurately ripped (confidence 4) [0E896829] (AR v2)Track 15 accurately ripped (confidence 4) [598B38AA] (AR v2)Track 16 accurately ripped (confidence 4) [FE3F8CD3] (AR v2)Track 17 accurately ripped (confidence 4) [E5CDCF85] (AR v2)Track 18 accurately ripped (confidence 4) [C6DAD73A] (AR v2)Track 19 accurately ripped (confidence 4) [BFF9593F] (AR v2)Track 20 accurately ripped (confidence 4) [710169F5] (AR v2)
All tracks accurately ripped
End of status report
---- CUETools DB Plugin V2.1.3
[CTDB TOCID: 2WfKkmoDj0YRIkuCcgRwNNO3kwk-] found, Submit result: 2WfKkmoDj0YRIkuCcgRwNNO3kwk- has been confirmed[f5397df0] (2/2) Accurately ripped
==== Log checksum DC8EC8EB26947D48CCF9ED9D8E79FF14BD9A8C2A05AF6B4F6CB6F80962B44D79 ====

Содержание индексной карты (.CUE)

REM GENRE RockREM DATE 2013REM DISCID 090C8314REM COMMENT "ExactAudioCopy v1.0b3"PERFORMER "Roy Orbison"TITLE "Anthology (CD1)"FILE "Roy Orbison - Anthology (CD1).flac" WAVE TRACK 01 AUDIO TITLE "Only The Lonely" PERFORMER "Roy Orbison" FLAGS DCP INDEX 01 00:00:00 TRACK 02 AUDIO TITLE "Dream Baby (How Long Must I Dream)" PERFORMER "Roy Orbison" FLAGS DCP INDEX 00 02:26:00 INDEX 01 02:27:58 TRACK 03 AUDIO TITLE "Crying" PERFORMER "Roy Orbison" FLAGS DCP INDEX 00 05:00:32 INDEX 01 05:02:15 TRACK 04 AUDIO TITLE "Lana" PERFORMER "Roy Orbison" FLAGS DCP INDEX 00 07:48:73 INDEX 01 07:50:54 TRACK 05 AUDIO TITLE "Working For The Man" PERFORMER "Roy Orbison" FLAGS DCP INDEX 00 10:07:08 INDEX 01 10:08:66 TRACK 06 AUDIO TITLE "Let's Make A Memory" PERFORMER "Roy Orbison" FLAGS DCP INDEX 00 12:34:55 INDEX 01 12:36:38 TRACK 07 AUDIO TITLE "Dance" PERFORMER "Roy Orbison" FLAGS DCP INDEX 00 14:53:57 INDEX 01 14:55:40 TRACK 08 AUDIO TITLE "Evergreen" PERFORMER "Roy Orbison" FLAGS DCP INDEX 00 17:47:56 INDEX 01 17:49:39 TRACK 09 AUDIO TITLE "Almost Eighteen" PERFORMER "Roy Orbison" FLAGS DCP INDEX 00 20:34:56 INDEX 01 20:36:39 TRACK 10 AUDIO TITLE "With The Bug" PERFORMER "Roy Orbison" FLAGS DCP INDEX 00 22:40:26 INDEX 01 22:42:09 TRACK 11 AUDIO TITLE "Night Life" PERFORMER "Roy Orbison" FLAGS DCP INDEX 00 25:08:49 INDEX 01 25:10:32 TRACK 12 AUDIO TITLE "Come Back To Me (My Love)" PERFORMER "Roy Orbison" FLAGS DCP INDEX 00 27:40:69 INDEX 01 27:42:52 TRACK 13 AUDIO TITLE "The Actress" PERFORMER "Roy Orbison" FLAGS DCP INDEX 00 30:10:18 INDEX 01 30:12:01 TRACK 14 AUDIO TITLE "Love Star" PERFORMER "Roy Orbison" FLAGS DCP INDEX 00 32:49:07 INDEX 01 32:50:63 TRACK 15 AUDIO TITLE "Here Comes That Song Again" PERFORMER "Roy Orbison" FLAGS DCP INDEX 00 35:50:39 INDEX 01 35:52:22 TRACK 16 AUDIO TITLE "Mama" PERFORMER "Roy Orbison" FLAGS DCP INDEX 00 38:35:56 INDEX 01 38:37:39 TRACK 17 AUDIO TITLE "The Great Pretender" PERFORMER "Roy Orbison" FLAGS DCP INDEX 00 41:36:64 INDEX 01 41:38:47 TRACK 18 AUDIO TITLE "(I'd Be) A Legend In My Time" PERFORMER "Roy Orbison" FLAGS DCP INDEX 00 44:39:51 INDEX 01 44:41:33 TRACK 19 AUDIO TITLE "Leah" PERFORMER "Roy Orbison" FLAGS DCP INDEX 00 47:49:01 INDEX 01 47:50:57 TRACK 20 AUDIO TITLE "Blue Angel" PERFORMER "Roy Orbison" FLAGS DCP INDEX 00 50:29:59 INDEX 01 50:31:39

DR Log

foobar2000 1.2.4 / Замер динамического диапазона (DR) 1.1.1Дата отчёта: 2016-07-16 11:37:14
--------------------------------------------------------------------------------Анализ: Roy Orbison / Anthology (CD1)--------------------------------------------------------------------------------
DR Пики RMS Продолжительность трека--------------------------------------------------------------------------------DR8 -0.15 дБ -9.92 дБ 2:28 01-Only The LonelyDR6 -0.13 дБ -8.15 дБ 2:34 02-Dream Baby (How Long Must I Dream)DR7 -0.13 дБ -8.46 дБ 2:49 03-CryingDR7 -0.14 дБ -9.12 дБ 2:18 04-LanaDR7 -0.14 дБ -8.87 дБ 2:28 05-Working For The ManDR8 -0.13 дБ -9.55 дБ 2:19 06-Let's Make A MemoryDR8 -0.14 дБ -9.83 дБ 2:54 07-DanceDR7 -0.14 дБ -9.21 дБ 2:47 08-EvergreenDR9 -0.17 дБ -9.81 дБ 2:06 09-Almost EighteenDR8 -0.14 дБ -9.56 дБ 2:28 10-With The BugDR8 -0.15 дБ -10.35 дБ 2:32 11-Night LifeDR7 -0.13 дБ -8.82 дБ 2:29 12-Come Back To Me (My Love)DR8 -0.13 дБ -9.78 дБ 2:39 13-The ActressDR8 -0.14 дБ -10.66 дБ 3:01 14-Love StarDR7 -0.15 дБ -9.10 дБ 2:45 15-Here Comes That Song AgainDR10 -0.14 дБ -12.02 дБ 3:01 16-MamaDR7 -0.14 дБ -9.27 дБ 3:03 17-The Great PretenderDR8 -0.32 дБ -9.90 дБ 3:09 18-(I'd Be) A Legend In My TimeDR6 -0.14 дБ -9.05 дБ 2:41 19-LeahDR7 -0.15 дБ -8.85 дБ 2:52 20-Blue Angel--------------------------------------------------------------------------------
Количество треков: 20Реальные значения DR: DR8
Частота: 44100 ГцКаналов: 2Разрядность: 16Битрейт: 903 кбит/сКодек: FLAC================================================================================

CD 2

01. Running Scared (2:13)
02. Love Hurts (2:28 )
03. The Crowd (2:24)
04. I'm Hurtin' (2:44)
05. Bye Bye Love (2:15)
06. Pretty One (2:19)
07. Blue Avenue (2:21)
08. Cry (2:43)
9. Sweet And Innocent (2:19)
10. Paper Boy (2:15)
11. Seems To Me (2:16)
12. Loneliness (2:28 )
13. Jolie (1:55)
14. I'll Say It's My Fault (2:22)
15. Wedding Day (2:07)
16. She Wears My Ring (2:32)
17. Summer Song (2:46)
18. Raindrops (1:53)
19. I Can't Stop Loving You (2:45)

Лог создания рипа

Exact Audio Copy V1.0 beta 3 from 29. August 2011
EAC extraction logfile from 16. July 2016, 12:09
Roy Orbison / Anthology [CD2]
Used drive : PIONEER BD-RW BDR-TD03 Adapter: 0 ID: 1
Read mode : SecureUtilize accurate stream : YesDefeat audio cache : YesMake use of C2 pointers : No
Read offset correction : 667Overread into Lead-In and Lead-Out : NoFill up missing offset samples with silence : YesDelete leading and trailing silent blocks : NoNull samples used in CRC calculations : YesUsed interface : Native Win32 interface for Win NT & 2000
Used output format : User Defined EncoderSelected bitrate : 768 kBit/sQuality : HighAdd ID3 tag : NoCommand line compressor : C:\Program Files (x86)\Exact Audio Copy\FLAC\FLAC.EXEAdditional command line options : -6 -V -T "ARTIST=%artist%" -T "TITLE=%title%" -T "ALBUM=%albumtitle%" -T "DATE=%year%" -T "TRACKNUMBER=%tracknr%" -T "GENRE=%genre%" -T "COMMENT=%comment%" -T "BAND=%albuminterpret%" -T "ALBUMARTIST=%albuminterpret%" -T "COMPOSER=%composer%" %haslyrics%--tag-from-file=LYRICS="%lyricsfile%"%haslyrics% -T "DISCNUMBER=%cdnumber%" -T "TOTALDISCS=%totalcds%" -T "TOTALTRACKS=%numtracks%" %hascover%--picture="%coverfile%"%hascover% %source% -o %dest%
TOC of the extracted CD
Track | Start | Length | Start sector | End sector --------------------------------------------------------- 1 | 0:00.00 | 2:13.68 | 0 | 10042 2 | 2:13.68 | 2:28.24 | 10043 | 21166 3 | 4:42.17 | 2:24.58 | 21167 | 32024 4 | 7:07.00 | 2:44.16 | 32025 | 44340 5 | 9:51.16 | 2:15.04 | 44341 | 54469 6 | 12:06.20 | 2:19.36 | 54470 | 64930 7 | 14:25.56 | 2:21.04 | 64931 | 75509 8 | 16:46.60 | 2:43.38 | 75510 | 87772 9 | 19:30.23 | 2:19.57 | 87773 | 98254 10 | 21:50.05 | 2:15.55 | 98255 | 108434 11 | 24:05.60 | 2:16.34 | 108435 | 118668 12 | 26:22.19 | 2:28.06 | 118669 | 129774 13 | 28:50.25 | 1:55.40 | 129775 | 138439 14 | 30:45.65 | 2:22.32 | 138440 | 149121 15 | 33:08.22 | 2:07.52 | 149122 | 158698 16 | 35:15.74 | 2:32.00 | 158699 | 170098 17 | 37:47.74 | 2:46.16 | 170099 | 182564 18 | 40:34.15 | 1:53.54 | 182565 | 191093 19 | 42:27.69 | 2:45.38 | 191094 | 203506
Range status and errors
Selected range
Filename C:\Users\Deris\Desktop\kpnemo.eu\AntoRoy\Cd2\Roy Orbison - Anthology [CD2].wav
Peak level 98.8 % Extraction speed 4.5 X Range quality 99.9 % Test CRC F966411C Copy CRC F966411C Copy OK
No errors occurred
AccurateRip summary
Track 1 accurately ripped (confidence 3) [C3445710] (AR v2)Track 2 accurately ripped (confidence 3) [B7EA9E68] (AR v2)Track 3 accurately ripped (confidence 3) [5615BF72] (AR v2)Track 4 accurately ripped (confidence 3) [ADEA92A7] (AR v2)Track 5 accurately ripped (confidence 3) [2CCE5C33] (AR v2)Track 6 accurately ripped (confidence 3) [CD87D778] (AR v2)Track 7 accurately ripped (confidence 3) [617DE6B9] (AR v2)Track 8 accurately ripped (confidence 3) [38FA2D37] (AR v2)Track 9 accurately ripped (confidence 3) [18A2E39A] (AR v2)Track 10 accurately ripped (confidence 3) [4B7FC1B5] (AR v2)Track 11 accurately ripped (confidence 3) [73B562F3] (AR v2)Track 12 accurately ripped (confidence 3) [234CAB5B] (AR v2)Track 13 accurately ripped (confidence 3) [D789D7AB] (AR v2)Track 14 accurately ripped (confidence 3) [C0FB0B2F] (AR v2)Track 15 accurately ripped (confidence 3) [88842426] (AR v2)Track 16 accurately ripped (confidence 3) [E72060D7] (AR v2)Track 17 accurately ripped (confidence 3) [495C5AAD] (AR v2)Track 18 accurately ripped (confidence 3) [D12C8283] (AR v2)Track 19 accurately ripped (confidence 3) [91EFDBDD] (AR v2)
All tracks accurately ripped
End of status report
---- CUETools DB Plugin V2.1.3
[CTDB TOCID: x7unNxSMiWDJemQ9mIEhAUZEpEM-] found, Submit result: x7unNxSMiWDJemQ9mIEhAUZEpEM- has been confirmed[e8e37385] (2/2) Accurately ripped
==== Log checksum 2CC006EE7F5DD14ECB3E89B3852BA7C32EE913E8BE42B8D59328BEAC34F36255 ====

Содержание индексной карты (.CUE)

REM GENRE RockREM DATE 2013REM DISCID 120A9913REM COMMENT "ExactAudioCopy v1.0b3"PERFORMER "Roy Orbison"TITLE "Anthology [CD2]"FILE "Roy Orbison - Anthology [CD2].flac" WAVE TRACK 01 AUDIO TITLE "Running Scared" PERFORMER "Roy Orbison" FLAGS DCP INDEX 01 00:00:00 TRACK 02 AUDIO TITLE "Love Hurts" PERFORMER "Roy Orbison" FLAGS DCP INDEX 00 02:12:10 INDEX 01 02:13:68 TRACK 03 AUDIO TITLE "The Crowd" PERFORMER "Roy Orbison" FLAGS DCP INDEX 00 04:40:34 INDEX 01 04:42:17 TRACK 04 AUDIO TITLE "I'm Hurtin'" PERFORMER "Roy Orbison" FLAGS DCP INDEX 00 07:05:17 INDEX 01 07:07:00 TRACK 05 AUDIO TITLE "Bye Bye Love" PERFORMER "Roy Orbison" FLAGS DCP INDEX 00 09:49:34 INDEX 01 09:51:16 TRACK 06 AUDIO TITLE "Pretty One" PERFORMER "Roy Orbison" FLAGS DCP INDEX 00 12:04:37 INDEX 01 12:06:20 TRACK 07 AUDIO TITLE "Blue Avenue" PERFORMER "Roy Orbison" FLAGS DCP INDEX 00 14:23:73 INDEX 01 14:25:56 TRACK 08 AUDIO TITLE "Cry" PERFORMER "Roy Orbison" FLAGS DCP INDEX 00 16:45:02 INDEX 01 16:46:60 TRACK 09 AUDIO TITLE "Sweet And Innocent" PERFORMER "Roy Orbison" FLAGS DCP INDEX 00 19:28:41 INDEX 01 19:30:23 TRACK 10 AUDIO TITLE "Paper Boy" PERFORMER "Roy Orbison" FLAGS DCP INDEX 00 21:48:23 INDEX 01 21:50:05 TRACK 11 AUDIO TITLE "Seems To Me" PERFORMER "Roy Orbison" FLAGS DCP INDEX 00 24:04:02 INDEX 01 24:05:60 TRACK 12 AUDIO TITLE "Loneliness" PERFORMER "Roy Orbison" FLAGS DCP INDEX 00 26:20:36 INDEX 01 26:22:19 TRACK 13 AUDIO TITLE "Jolie" PERFORMER "Roy Orbison" FLAGS DCP INDEX 00 28:48:42 INDEX 01 28:50:25 TRACK 14 AUDIO TITLE "I'll Say It's My Fault" PERFORMER "Roy Orbison" FLAGS DCP INDEX 00 30:44:08 INDEX 01 30:45:65 TRACK 15 AUDIO TITLE "Wedding Day" PERFORMER "Roy Orbison" FLAGS DCP INDEX 00 33:06:39 INDEX 01 33:08:22 TRACK 16 AUDIO TITLE "She Wears My Ring" PERFORMER "Roy Orbison" FLAGS DCP INDEX 00 35:14:16 INDEX 01 35:15:74 TRACK 17 AUDIO TITLE "Summer Song" PERFORMER "Roy Orbison" FLAGS DCP INDEX 00 37:46:16 INDEX 01 37:47:74 TRACK 18 AUDIO TITLE "Raindrops" PERFORMER "Roy Orbison" FLAGS DCP INDEX 00 40:32:32 INDEX 01 40:34:15 TRACK 19 AUDIO TITLE "I Can't Stop Loving You" PERFORMER "Roy Orbison" FLAGS DCP INDEX 00 42:26:11 INDEX 01 42:27:69

DR Log

foobar2000 1.2.4 / Замер динамического диапазона (DR) 1.1.1Дата отчёта: 2016-07-16 12:14:15
--------------------------------------------------------------------------------Анализ: Roy Orbison / Anthology [CD2]--------------------------------------------------------------------------------
DR Пики RMS Продолжительность трека--------------------------------------------------------------------------------DR7 -0.13 дБ -9.50 дБ 2:14 01-Running ScaredDR7 -0.15 дБ -9.17 дБ 2:28 02-Love HurtsDR7 -0.14 дБ -10.28 дБ 2:25 03-The CrowdDR8 -0.13 дБ -9.45 дБ 2:44 04-I'm Hurtin'DR7 -0.11 дБ -8.75 дБ 2:15 05-Bye Bye LoveDR6 -0.13 дБ -7.63 дБ 2:19 06-Pretty OneDR7 -0.12 дБ -8.11 дБ 2:21 07-Blue AvenueDR7 -0.10 дБ -8.25 дБ 2:44 08-CryDR6 -0.13 дБ -7.23 дБ 2:20 09-Sweet And InnocentDR6 -0.13 дБ -7.61 дБ 2:16 10-Paper BoyDR6 -0.14 дБ -7.29 дБ 2:16 11-Seems To MeDR6 -0.14 дБ -8.03 дБ 2:28 12-LonelinessDR9 -0.14 дБ -10.06 дБ 1:56 13-JolieDR8 -0.19 дБ -9.64 дБ 2:22 14-I'll Say It's My FaultDR7 -0.10 дБ -8.97 дБ 2:08 15-Wedding DayDR7 -0.14 дБ -8.86 дБ 2:32 16-She Wears My RingDR6 -0.15 дБ -8.72 дБ 2:46 17-Summer SongDR8 -0.12 дБ -8.96 дБ 1:54 18-RaindropsDR7 -0.14 дБ -8.74 дБ 2:46 19-I Can't Stop Loving You--------------------------------------------------------------------------------
Количество треков: 19Реальные значения DR: DR7
Частота: 44100 ГцКаналов: 2Разрядность: 16Битрейт: 885 кбит/сКодек: FLAC================================================================================

CD 3

01. Candy Man (2:46)
02. Uptown (2:08 )
03. Today's Teardrops (2:13)
04. Ooby Dooby (2:12)
05. Rockhouse (2:03)
06. Go! Go! Go! (2:08 )
07. You're My Baby (2:07)
08. Devil Doll (2:11)
09. Twenty-Two Days (3:07)
10. Problem Child (2:20)
11. You're Gonna Cry (2:08 )
12. Chicken Hearted (2:17)
13. I Like Love (2:33)
14. Sweet And Easy To Love (2:11)
15. I Never Knew (2:22)
16. It's Too Late (2:00)
17. This Kind Of Love (2:09)
18. Tryin' To Get To You (2:41)
19. Mean Little Mama (2:07)

Лог создания рипа

Exact Audio Copy V1.0 beta 3 from 29. August 2011
EAC extraction logfile from 16. July 2016, 13:17
Roy Orbison / Anthology [CD3]
Used drive : PIONEER BD-RW BDR-TD03 Adapter: 0 ID: 1
Read mode : SecureUtilize accurate stream : YesDefeat audio cache : YesMake use of C2 pointers : No
Read offset correction : 667Overread into Lead-In and Lead-Out : NoFill up missing offset samples with silence : YesDelete leading and trailing silent blocks : NoNull samples used in CRC calculations : YesUsed interface : Native Win32 interface for Win NT & 2000
Used output format : User Defined EncoderSelected bitrate : 768 kBit/sQuality : HighAdd ID3 tag : NoCommand line compressor : C:\Program Files (x86)\Exact Audio Copy\FLAC\FLAC.EXEAdditional command line options : -6 -V -T "ARTIST=%artist%" -T "TITLE=%title%" -T "ALBUM=%albumtitle%" -T "DATE=%year%" -T "TRACKNUMBER=%tracknr%" -T "GENRE=%genre%" -T "COMMENT=%comment%" -T "BAND=%albuminterpret%" -T "ALBUMARTIST=%albuminterpret%" -T "COMPOSER=%composer%" %haslyrics%--tag-from-file=LYRICS="%lyricsfile%"%haslyrics% -T "DISCNUMBER=%cdnumber%" -T "TOTALDISCS=%totalcds%" -T "TOTALTRACKS=%numtracks%" %hascover%--picture="%coverfile%"%hascover% %source% -o %dest%
TOC of the extracted CD
Track | Start | Length | Start sector | End sector --------------------------------------------------------- 1 | 0:00.00 | 2:46.22 | 0 | 12471 2 | 2:46.22 | 2:08.10 | 12472 | 22081 3 | 4:54.32 | 2:13.21 | 22082 | 32077 4 | 7:07.53 | 2:12.41 | 32078 | 42018 5 | 9:20.19 | 2:03.45 | 42019 | 51288 6 | 11:23.64 | 2:08.42 | 51289 | 60930 7 | 13:32.31 | 2:07.41 | 60931 | 70496 8 | 15:39.72 | 2:11.29 | 70497 | 80350 9 | 17:51.26 | 3:07.30 | 80351 | 94405 10 | 20:58.56 | 2:20.57 | 94406 | 104962 11 | 23:19.38 | 2:08.13 | 104963 | 114575 12 | 25:27.51 | 2:17.42 | 114576 | 124892 13 | 27:45.18 | 2:33.12 | 124893 | 136379 14 | 30:18.30 | 2:11.56 | 136380 | 146260 15 | 32:30.11 | 2:22.08 | 146261 | 156918 16 | 34:52.19 | 2:00.06 | 156919 | 165924 17 | 36:52.25 | 2:09.04 | 165925 | 175603 18 | 39:01.29 | 2:41.20 | 175604 | 187698 19 | 41:42.49 | 2:07.03 | 187699 | 197226
Range status and errors
Selected range
Filename C:\Users\Deris\Desktop\kpnemo.eu\AntoRoy\cd3\Roy Orbison - Anthology [CD3].wav
Peak level 98.8 % Extraction speed 1.7 X Range quality 100.0 % Test CRC 8C380523 Copy CRC 8C380523 Copy OK
No errors occurred
AccurateRip summary
Track 1 accurately ripped (confidence 3) [0108CF05] (AR v2)Track 2 accurately ripped (confidence 3) [C4357F88] (AR v2)Track 3 accurately ripped (confidence 3) [92F41B0A] (AR v2)Track 4 accurately ripped (confidence 3) [A2607C00] (AR v2)Track 5 accurately ripped (confidence 3) [612567C4] (AR v2)Track 6 accurately ripped (confidence 3) [C6DE4713] (AR v2)Track 7 accurately ripped (confidence 3) [D5ABFAB3] (AR v2)Track 8 accurately ripped (confidence 3) [4D42AC11] (AR v2)Track 9 accurately ripped (confidence 3) [8E9B1352] (AR v2)Track 10 accurately ripped (confidence 3) [13F709ED] (AR v2)Track 11 accurately ripped (confidence 3) [E967E312] (AR v2)Track 12 accurately ripped (confidence 3) [EC886213] (AR v2)Track 13 accurately ripped (confidence 3) [4463E35E] (AR v2)Track 14 accurately ripped (confidence 3) [61F7F5E3] (AR v2)Track 15 accurately ripped (confidence 3) [04119CD0] (AR v2)Track 16 accurately ripped (confidence 3) [70EBD598] (AR v2)Track 17 accurately ripped (confidence 3) [443E85E2] (AR v2)Track 18 accurately ripped (confidence 3) [914609DB] (AR v2)Track 19 accurately ripped (confidence 3) [BC7328A3] (AR v2)
All tracks accurately ripped
End of status report
---- CUETools DB Plugin V2.1.3
[CTDB TOCID: TBrG9kzTzgjkPny0bHxGzK828IY-] found, Submit result: TBrG9kzTzgjkPny0bHxGzK828IY- has been confirmed[9e7c0596] (3/3) Accurately ripped
==== Log checksum 102D6CAE154A2509540F004527035B3E319C810B1B92B8C12FC2C6849E8D1A79 ====

Содержание индексной карты (.CUE)

REM GENRE RockREM DATE 2013REM DISCID F60A4513REM COMMENT "ExactAudioCopy v1.0b3"PERFORMER "Roy Orbison"TITLE "Anthology [CD3]"FILE "Roy Orbison - Anthology [CD3].flac" WAVE TRACK 01 AUDIO TITLE "Candy Man" PERFORMER "Roy Orbison" FLAGS DCP INDEX 01 00:00:00 TRACK 02 AUDIO TITLE "Uptown" PERFORMER "Roy Orbison" FLAGS DCP INDEX 00 02:44:39 INDEX 01 02:46:22 TRACK 03 AUDIO TITLE "Today's Teardrops" PERFORMER "Roy Orbison" FLAGS DCP INDEX 00 04:52:49 INDEX 01 04:54:32 TRACK 04 AUDIO TITLE "Ooby Dooby" PERFORMER "Roy Orbison" FLAGS DCP INDEX 00 07:05:70 INDEX 01 07:07:53 TRACK 05 AUDIO TITLE "Rockhouse" PERFORMER "Roy Orbison" FLAGS DCP INDEX 00 09:18:36 INDEX 01 09:20:19 TRACK 06 AUDIO TITLE "Go! Go! Go!" PERFORMER "Roy Orbison" FLAGS DCP INDEX 00 11:22:06 INDEX 01 11:23:64 TRACK 07 AUDIO TITLE "You're My Baby" PERFORMER "Roy Orbison" FLAGS DCP INDEX 00 13:30:48 INDEX 01 13:32:31 TRACK 08 AUDIO TITLE "Devil Doll" PERFORMER "Roy Orbison" FLAGS DCP INDEX 00 15:38:14 INDEX 01 15:39:72 TRACK 09 AUDIO TITLE "Twenty-Two Days" PERFORMER "Roy Orbison" FLAGS DCP INDEX 00 17:49:43 INDEX 01 17:51:26 TRACK 10 AUDIO TITLE "Problem Child" PERFORMER "Roy Orbison" FLAGS DCP INDEX 00 20:56:73 INDEX 01 20:58:56 TRACK 11 AUDIO TITLE "You're Gonna Cry" PERFORMER "Roy Orbison" FLAGS DCP INDEX 00 23:17:55 INDEX 01 23:19:38 TRACK 12 AUDIO TITLE "Chicken Hearted" PERFORMER "Roy Orbison" FLAGS DCP INDEX 00 25:25:69 INDEX 01 25:27:51 TRACK 13 AUDIO TITLE "I Like Love" PERFORMER "Roy Orbison" FLAGS DCP INDEX 00 27:43:35 INDEX 01 27:45:18 TRACK 14 AUDIO TITLE "Sweet And Easy To Love" PERFORMER "Roy Orbison" FLAGS DCP INDEX 00 30:16:47 INDEX 01 30:18:30 TRACK 15 AUDIO TITLE "I Never Knew" PERFORMER "Roy Orbison" FLAGS DCP INDEX 00 32:28:28 INDEX 01 32:30:11 TRACK 16 AUDIO TITLE "It's Too Late" PERFORMER "Roy Orbison" FLAGS DCP INDEX 00 34:50:36 INDEX 01 34:52:19 TRACK 17 AUDIO TITLE "This Kind Of Love" PERFORMER "Roy Orbison" FLAGS DCP INDEX 00 36:50:42 INDEX 01 36:52:25 TRACK 18 AUDIO TITLE "Tryin' To Get To You" PERFORMER "Roy Orbison" FLAGS DCP INDEX 00 38:59:46 INDEX 01 39:01:29 TRACK 19 AUDIO TITLE "Mean Little Mama" PERFORMER "Roy Orbison" FLAGS DCP INDEX 00 41:40:66 INDEX 01 41:42:49

DR Log

foobar2000 1.2.4 / Замер динамического диапазона (DR) 1.1.1Дата отчёта: 2016-07-16 13:25:58
--------------------------------------------------------------------------------Анализ: Roy Orbison / Anthology [CD3]--------------------------------------------------------------------------------
DR Пики RMS Продолжительность трека--------------------------------------------------------------------------------DR8 -0.15 дБ -9.99 дБ 2:46 01-Candy ManDR8 -0.20 дБ -9.82 дБ 2:08 02-UptownDR7 -0.15 дБ -8.82 дБ 2:13 03-Today's TeardropsDR7 -0.15 дБ -8.61 дБ 2:13 04-Ooby DoobyDR9 -0.13 дБ -10.36 дБ 2:04 05-RockhouseDR7 -0.11 дБ -8.48 дБ 2:09 06-Go! Go! Go!DR8 -0.10 дБ -9.53 дБ 2:08 07-You're My BabyDR7 -0.14 дБ -9.26 дБ 2:11 08-Devil DollDR7 -0.15 дБ -8.52 дБ 3:07 09-Twenty-Two DaysDR6 -0.15 дБ -8.18 дБ 2:21 10-Problem ChildDR8 -0.10 дБ -9.97 дБ 2:08 11-You're Gonna CryDR8 -0.11 дБ -10.32 дБ 2:18 12-Chicken HeartedDR8 -0.10 дБ -9.64 дБ 2:33 13-I Like LoveDR9 -0.13 дБ -10.13 дБ 2:12 14-Sweet And Easy To LoveDR7 -0.13 дБ -8.95 дБ 2:22 15-I Never KnewDR7 -0.13 дБ -9.26 дБ 2:00 16-It's Too LateDR8 -0.14 дБ -8.96 дБ 2:09 17-This Kind Of LoveDR7 -0.10 дБ -8.79 дБ 2:41 18-Tryin' To Get To YouDR8 -0.13 дБ -9.53 дБ 2:07 19-Mean Little Mama--------------------------------------------------------------------------------
Количество треков: 19Реальные значения DR: DR8
Частота: 44100 ГцКаналов: 2Разрядность: 16Битрейт: 730 кбит/сКодек: FLAC================================================================================
Other forum [Profile] [PM]
Similar theme
Forum Topic Author Torrent Replies Last Post
./templates/default/images/folder_dl.gif Rock (Classic Rock) The Beatles Anthology \\ Антология Битлз (6 CD) - 1995, APE (image+.cue), lossless Omen
0 | 1

0 | 1969

1

2013-07-15 00:08
Omen Latest
./templates/default/images/folder_dl.gif Rock (Classic Rock / Pub Rock) Cold Chisel - The Perfect Crime (Deluxe Edition) - 2015, MP3, 320 kbps Omen
2 | 0

0 | 1145

10

2015-10-02 21:00
Omen Latest
Display posts from previous:    
Reply to topic

The time now is: Today 15:39

All times are GMT + 3 Hours



You cannot post new topics in this forum
You cannot reply to topics in this forum
You cannot edit your posts in this forum
You cannot delete your posts in this forum
You cannot vote in polls in this forum
You cannot attach files in this forum
You cannot download files in this forum