Today is a free download without charge Download

Варкрафт в 3Д / Warcraft 3D (Дункан Джонс / Duncan Jones) [2016, фэнтези, боевик, приключения, BDRip] Half SideBySide / Горизонтальная анаморфная стереопара

Reply to topic
 
Author
Message

Omen ®

Longevity: 6 years 11 months

Posts: 181090

Торрент-статистика

Post 04-Oct-2016 01:00

[Quote]

- Название: Варкрафт
Оригинальное название: Warcraft
Год выпуска: 2016
Страна: Китай, Канада, Япония, США / Universal Pictures
Жанр: фэнтези, боевик, приключения
Продолжительность: 02:03:08
Перевод: Профессиональный (дублированный)
Субтитры: русские, английские
Оригинальная аудиодорожка: английский-Режиссер: Дункан Джонс / Duncan Jones-В ролях: Трэвис Фиммел, Пола Пэттон, Бен Фостер, Доминик Купер, Тоби Кеббелл, Бен Шнетцер, Роберт Казински, Клэнси Браун, Дэниэл Ву, Рут Нэгга, Анна Галвин, Каллум Кит Ренни, Баркели Даффилд, Райан Роббинс, Дин Редман.-Описание: Первая высокобюджетная экранизация, созданная по вселенной компьютерной игре «Варкрафт». Бесчисленные орды диких орков бегут со своей гибнущей родины в новый мир, где в мирной идиллии живут племена людей и кланы волшебников. Древние силы зла смертельной угрозой нависли над землями королевства Азерот – кто выйдет победителем из решающей схватки? Веками магия и неприступные стены защищали людей от любых напастей. Но древнее зло, побежденное и забытое тысячелетия назад, пробудилось. В самом сердце королевства открылся темный портал, и раса невиданных существ наводнила земли Азерота. Так начались события, призванные навсегда изменить судьбу этого мира.-Формат 3D: Half SideBySide / Горизонтальная анаморфная стереопара
Качество: BDRip
Контейнер: MKV
Видео: 1920x1080 at 23.976 fps, [email protected], crf, ~8800 kbps avg
Аудио 1: Russian 48 kHz, AC3, 3/2 (L,C,R,l,r) + LFE ch, 640.00 kbps avg | BD CEE
Аудио 2: English 48 kHz, AC3, 3/2 (L,C,R,l,r) + LFE ch, 640.00 kbps avg | Original
Субтитры: русские форсированные, русские полные, английские полные, английские полные sdh

Инфо

Формат : Matroska
Версия формата : Version 4 / Version 2
Размер файла : 8,63 Гбайт
Продолжительность : 2 ч. 3 м.
Общий поток : 10,0 Мбит/сек
Название фильма : Warcraft 2016 Seven
Дата кодирования : UTC 2016-09-23 16:28:28
Программа кодирования : mkvmerge v9.3.1 ('Mask Machine') 32bit
Библиотека кодирования : libebml v1.3.4 + libmatroska v1.4.5
Видео
Идентификатор : 1
Формат : AVC
Формат/Информация : Advanced Video Codec
Профиль формата : [email protected]
MultiView_Count : 2
MultiView_Layout : Side by Side (left eye first)
Параметр CABAC формата : Да
Параметр ReFrames формата : 4 кадра
Идентификатор кодека : V_MPEG4/ISO/AVC
Продолжительность : 2 ч. 3 м.
Битрейт : 8752 Кбит/сек
Ширина : 1920 пикселей
Высота : 1080 пикселей
Соотношение сторон : 16:9
Режим частоты кадров : Постоянный
Частота кадров : 23,976 (24000/1001) кадра/сек
Цветовое пространство : YUV
Субдискретизация насыщенности : 4:2:0
Битовая глубина : 8 бит
Тип развёртки : Прогрессивная
Бит/(Пиксели*Кадры) : 0.176
Размер потока : 7,53 Гбайт (87%)
Заголовок : 3D HSBS BD3D2MK3D
Библиотека кодирования : x264 core 148 r2705 3f5ed56
Настройки программы : cabac=1 / ref=4 / deblock=1:-1:-1 / analyse=0x3:0x133 / me=umh / subme=10 / psy=1 / psy_rd=1.00:0.15 / mixed_ref=1 / me_range=24 / chroma_me=1 / trellis=2 / 8x8dct=1 / cqm=0 / deadzone=21,11 / fast_pskip=1 / chroma_qp_offset=-3 / threads=12 / lookahead_threads=2 / sliced_threads=0 / nr=0 / decimate=1 / interlaced=0 / bluray_compat=0 / constrained_intra=0 / bframes=8 / b_pyramid=2 / b_adapt=2 / b_bias=0 / direct=3 / weightb=1 / open_gop=0 / weightp=2 / keyint=250 / keyint_min=23 / scenecut=40 / intra_refresh=0 / rc_lookahead=60 / rc=2pass / mbtree=1 / bitrate=8752 / ratetol=1.0 / qcomp=0.60 / qpmin=0 / qpmax=69 / qpstep=4 / cplxblur=20.0 / qblur=0.5 / vbv_maxrate=62500 / vbv_bufsize=78125 / nal_hrd=none / filler=0 / frame-packing=3 / ip_ratio=1.40 / aq=1:1.00
Язык : English
Default : Да
Forced : Нет
Цветовой диапазон : Limited
Коэффициенты матрицы : BT.709
Аудио #1
Идентификатор : 2
Формат : AC-3
Формат/Информация : Audio Coding 3
Расширение режима : CM (complete main)
Параметр Endianness формата : Big
Идентификатор кодека : A_AC3
Продолжительность : 2 ч. 3 м.
Вид битрейта : Постоянный
Битрейт : 640 Кбит/сек
Каналы : 6 каналов
Расположение каналов : Front: L C R, Side: L R, LFE
Частота : 48,0 КГц
Частота кадров : 31,250 кадров/сек (1536 spf)
Метод сжатия : С потерями
Размер потока : 564 Мбайт (6%)
Заголовок : Dub BD CEE
Язык : Russian
Default : Да
Forced : Нет
Аудио #2
Идентификатор : 3
Формат : AC-3
Формат/Информация : Audio Coding 3
Расширение режима : CM (complete main)
Параметр Endianness формата : Big
Идентификатор кодека : A_AC3
Продолжительность : 2 ч. 3 м.
Вид битрейта : Постоянный
Битрейт : 640 Кбит/сек
Каналы : 6 каналов
Расположение каналов : Front: L C R, Side: L R, LFE
Частота : 48,0 КГц
Частота кадров : 31,250 кадров/сек (1536 spf)
Метод сжатия : С потерями
Размер потока : 564 Мбайт (6%)
Заголовок : Original
Язык : English
Default : Нет
Forced : Нет
Текст #1
Идентификатор : 4
Формат : UTF-8
Идентификатор кодека : S_TEXT/UTF8
Идентификатор кодека/Информация : UTF-8 Plain Text
Продолжительность : 1 ч. 43 м.
Битрейт : 0 бит/сек
Count of elements : 9
Размер потока : 312 байт (0%)
Заголовок : Forced
Язык : Russian
Default : Да
Forced : Нет
Текст #2
Идентификатор : 5
Формат : UTF-8
Идентификатор кодека : S_TEXT/UTF8
Идентификатор кодека/Информация : UTF-8 Plain Text
Продолжительность : 1 ч. 55 м.
Битрейт : 57 бит/сек
Count of elements : 1054
Размер потока : 48,4 Кбайт (0%)
Заголовок : Full
Язык : Russian
Default : Нет
Forced : Нет
Текст #3
Идентификатор : 6
Формат : UTF-8
Идентификатор кодека : S_TEXT/UTF8
Идентификатор кодека/Информация : UTF-8 Plain Text
Продолжительность : 1 ч. 52 м.
Битрейт : 36 бит/сек
Count of elements : 1235
Размер потока : 30,2 Кбайт (0%)
Заголовок : Full
Язык : English
Default : Нет
Forced : Нет
Текст #4
Идентификатор : 7
Формат : UTF-8
Идентификатор кодека : S_TEXT/UTF8
Идентификатор кодека/Информация : UTF-8 Plain Text
Продолжительность : 1 ч. 53 м.
Битрейт : 42 бит/сек
Count of elements : 1394
Размер потока : 35,0 Кбайт (0%)
Заголовок : SDH
Язык : English
Default : Нет
Forced : Нет
Меню
00:00:00.000 : :1 - 0:00:00
00:09:26.480 : :2 - 0:09:26
00:15:49.404 : :3 - 0:15:49
00:22:36.144 : :4 - 0:22:36
00:29:16.171 : :5 - 0:29:16
00:38:43.320 : :6 - 0:38:43
00:46:44.092 : :7 - 0:46:44
00:53:02.679 : :8 - 0:53:03
00:56:17.331 : :9 - 0:56:17
01:02:43.925 : :10 - 1:02:44
01:07:48.313 : :11 - 1:07:48
01:12:24.546 : :12 - 1:12:25
01:17:13.045 : :13 - 1:17:13
01:22:45.667 : :14 - 1:22:46
01:26:32.145 : :15 - 1:26:32
01:32:29.667 : :16 - 1:32:30
01:40:25.100 : :17 - 1:40:25
01:47:38.118 : :18 - 1:47:38
01:51:12.832 : :19 - 1:51:13
01:53:58.832 : :20 - 1:53:59
02:03:07.712 : :21 - 2:03:08

Скриншоты

Other forum [Profile] [PM]
Display posts from previous:    
Reply to topic

The time now is: Today 18:21

All times are GMT + 3 Hours



You cannot post new topics in this forum
You cannot reply to topics in this forum
You cannot edit your posts in this forum
You cannot delete your posts in this forum
You cannot vote in polls in this forum
You cannot attach files in this forum
You cannot download files in this forum