Today is a free download without charge Download

День независимости: Возрождение 3Д / Independence Day: Resurgence 3D (Роланд Эммерих / Roland Emmerich) [2016, фантастика, боевик, приключения, BDRip] Half SideBySide / Горизонтальная анаморфная стереопара

Reply to topic
 
Author
Message

Omen ®

Longevity: 7 years

Posts: 181090

Торрент-статистика

Post 08-Dec-2016 01:00

[Quote]

День независимости: Возрождение
Independence Day: Resurgence- Год выпуска: 2016
Страна: США / 20th Century Fox Film Corporation
Жанр: фантастика, боевик, приключения
Продолжительность: 01:59:44
Перевод: Профессиональный (дублированный)
Субтитры: русские, украинские, английские
Оригинальная аудиодорожка: английский-Режиссер: Роланд Эммерих / Roland Emmerich-В ролях: Лиам Хемсворт (Jake Morrison), Джефф Голдблюм (David Levinson), Джесси Ашер (Dylan Hiller), Билл Пуллман (President Whitmore), Майка Монро (Patricia Whitmore), Села Уорд (President Lanford), Уильям Фихтнер (General Adams), Джадд Хёрш (Julius Levinson), Брент Спайнер (Dr. Brakish Okun), Патрик Ст. Эсприт (Secretary of Defense Tanner), Вивика А. Фокс (Jasmine Hiller), Анджела Бейби (Rain Lao).-Описание: Используя инопланетные технологии, жители Земли создали специальную программу по защите планеты. Но ничего не может нас спасти от нового, еще более разрушительного и масштабного инопланетного вторжения - только смелость нескольких героев, которые единственные могут спасти наш мир от уничтожения.-Формат 3D: Half SideBySide / Горизонтальная анаморфная стереопара
Качество: BDRip
Контейнер: MKV
Видео: 1920x1080 at 23.976 fps, [email protected], 2pass, ~9500 kbps avg
Аудио 1: Russian 48 kHz, DTS, 3/2 (L,C,R,l,r) + LFE ch, ~768.00 kbps avg | Дубляж BD EUR
Аудио 2: Ukrainian 48 kHz, AC3, 3/2 (L,C,R,l,r) + LFE ch, ~448.00 kbps avg | Дубляж BD EUR
Аудио 3: English 48 kHz, DTS, 3/2 (L,C,R,l,r) + LFE ch, ~1509.00 kbps avg | Original
Субтитры: русские (форсированные, полные), украинские (полные), английские (форсированные, полные)

Инфо

Формат : Matroska
Версия формата : Version 4 / Version 2
Размер файла : 10,2 Гбайт
Продолжительность : 1 ч. 59 м.
Общий поток : 12,2 Мбит/сек
Название фильма : День независимости: Возрождение / Independence Day: Resurgence 2016
Дата кодирования : UTC 2016-10-11 17:38:32
Программа кодирования : mkvmerge v9.3.1 ('Mask Machine') 32bit
Библиотека кодирования : libebml v1.3.4 + libmatroska v1.4.5
Видео
Идентификатор : 1
Формат : AVC
Формат/Информация : Advanced Video Codec
Профиль формата : [email protected]
Параметр CABAC формата : Да
Параметр ReFrames формата : 4 кадра
Идентификатор кодека : V_MPEG4/ISO/AVC
Продолжительность : 1 ч. 59 м.
Битрейт : 9500 Кбит/сек
Ширина : 1920 пикселей
Высота : 1080 пикселей
Соотношение сторон : 16:9
Режим частоты кадров : Постоянный
Частота кадров : 23,976 (24000/1001) кадра/сек
Цветовое пространство : YUV
Субдискретизация насыщенности : 4:2:0
Битовая глубина : 8 бит
Тип развёртки : Прогрессивная
Бит/(Пиксели*Кадры) : 0.191
Размер потока : 7,95 Гбайт (78%)
Заголовок : 3D HSBS
Библиотека кодирования : x264 core 148 r2638 7599210
Настройки программы : cabac=1 / ref=4 / deblock=1:-3:-3 / analyse=0x3:0x133 / me=umh / subme=10 / psy=1 / psy_rd=1.05:0.00 / mixed_ref=1 / me_range=32 / chroma_me=1 / trellis=2 / 8x8dct=1 / cqm=0 / deadzone=21,11 / fast_pskip=0 / chroma_qp_offset=-2 / threads=12 / lookahead_threads=2 / sliced_threads=0 / nr=0 / decimate=0 / interlaced=0 / bluray_compat=0 / constrained_intra=0 / bframes=8 / b_pyramid=2 / b_adapt=2 / b_bias=0 / direct=3 / weightb=1 / open_gop=0 / weightp=2 / keyint=240 / keyint_min=23 / scenecut=40 / intra_refresh=0 / rc_lookahead=60 / rc=2pass / mbtree=1 / bitrate=9500 / ratetol=1.0 / qcomp=0.60 / qpmin=0 / qpmax=69 / qpstep=4 / cplxblur=20.0 / qblur=0.5 / vbv_maxrate=62500 / vbv_bufsize=78125 / nal_hrd=none / filler=0 / ip_ratio=1.40 / aq=1:0.80
Язык : English
Default : Да
Forced : Нет
Аудио #1
Идентификатор : 2
Формат : DTS
Формат/Информация : Digital Theater Systems
Режим : 16
Параметр Endianness формата : Big
Идентификатор кодека : A_DTS
Продолжительность : 1 ч. 59 м.
Вид битрейта : Постоянный
Битрейт : 768 Кбит/сек
Каналы : 6 каналов
Расположение каналов : Front: L C R, Side: L R, LFE
Частота : 48,0 КГц
Частота кадров : 93,750 кадра/сек (512 spf)
Битовая глубина : 24 бит
Метод сжатия : С потерями
Размер потока : 658 Мбайт (6%)
Заголовок : Дубляж BD EUR
Язык : Russian
Default : Да
Forced : Нет
Аудио #2
Идентификатор : 3
Формат : AC-3
Формат/Информация : Audio Coding 3
Расширение режима : CM (complete main)
Параметр Endianness формата : Big
Идентификатор кодека : A_AC3
Продолжительность : 1 ч. 59 м.
Вид битрейта : Постоянный
Битрейт : 448 Кбит/сек
Каналы : 6 каналов
Расположение каналов : Front: L C R, Side: L R, LFE
Частота : 48,0 КГц
Частота кадров : 31,250 кадров/сек (1536 spf)
Метод сжатия : С потерями
Размер потока : 384 Мбайт (4%)
Заголовок : Дубляж BD EUR
Язык : Ukrainian
Default : Нет
Forced : Нет
Аудио #3
Идентификатор : 4
Формат : DTS
Формат/Информация : Digital Theater Systems
Профиль формата : ES Matrix / Core
Режим : 16
Параметр Endianness формата : Big
Идентификатор кодека : A_DTS
Продолжительность : 1 ч. 59 м.
Вид битрейта : Постоянный
Битрейт : 1509 Кбит/сек
Каналы : 7 каналов / 6 каналов
Расположение каналов : Front: L C R, Side: L R, Back: C, LFE / Front: L C R, Side: L R, LFE
Частота : 48,0 КГц
Частота кадров : 93,750 кадра/сек (512 spf)
Битовая глубина : 24 бит
Метод сжатия : С потерями
Размер потока : 1,26 Гбайт (12%)
Заголовок : Original
Язык : English
Default : Нет
Forced : Нет
Текст #1
Идентификатор : 5
Формат : UTF-8
Идентификатор кодека : S_TEXT/UTF8
Идентификатор кодека/Информация : UTF-8 Plain Text
Продолжительность : 1 ч. 57 м.
Битрейт : 1 бит/сек
Count of elements : 15
Размер потока : 1,02 Кбайт (0%)
Заголовок : Forced
Язык : Russian
Default : Да
Forced : Нет
Текст #2
Идентификатор : 6
Формат : UTF-8
Идентификатор кодека : S_TEXT/UTF8
Идентификатор кодека/Информация : UTF-8 Plain Text
Продолжительность : 1 ч. 58 м.
Битрейт : 94 бит/сек
Count of elements : 1736
Размер потока : 82,0 Кбайт (0%)
Заголовок : Full iTunes
Язык : Russian
Default : Нет
Forced : Нет
Текст #3
Идентификатор : 7
Формат : UTF-8
Идентификатор кодека : S_TEXT/UTF8
Идентификатор кодека/Информация : UTF-8 Plain Text
Продолжительность : 1 ч. 58 м.
Битрейт : 95 бит/сек
Count of elements : 1733
Размер потока : 82,9 Кбайт (0%)
Заголовок : Full iTunes
Язык : Ukrainian
Default : Нет
Forced : Нет
Текст #4
Идентификатор : 8
Формат : UTF-8
Идентификатор кодека : S_TEXT/UTF8
Идентификатор кодека/Информация : UTF-8 Plain Text
Продолжительность : 7 с. 464 мс.
Битрейт : 114 бит/сек
Count of elements : 3
Размер потока : 107 байт (0%)
Заголовок : Forced
Язык : English
Default : Нет
Forced : Нет
Текст #5
Идентификатор : 9
Формат : UTF-8
Идентификатор кодека : S_TEXT/UTF8
Идентификатор кодека/Информация : UTF-8 Plain Text
Продолжительность : 1 ч. 49 м.
Битрейт : 62 бит/сек
Count of elements : 1711
Размер потока : 50,3 Кбайт (0%)
Заголовок : Full
Язык : English
Default : Нет
Forced : Нет
Текст #6
Идентификатор : 10
Формат : UTF-8
Идентификатор кодека : S_TEXT/UTF8
Идентификатор кодека/Информация : UTF-8 Plain Text
Продолжительность : 1 ч. 49 м.
Битрейт : 74 бит/сек
Count of elements : 2158
Размер потока : 59,7 Кбайт (0%)
Заголовок : Full SDH
Язык : English
Default : Нет
Forced : Нет
Меню
00:00:00.000 : en:1
00:05:37.336 : en:2
00:09:15.471 : en:3
00:14:06.720 : en:4
00:19:40.470 : en:5
00:22:59.001 : en:6
00:27:10.252 : en:7
00:31:37.644 : en:8
00:39:11.974 : en:9
00:43:41.117 : en:10
00:47:46.612 : en:11
00:52:32.190 : en:12
00:59:10.255 : en:13
01:02:00.132 : en:14
01:07:12.068 : en:15
01:09:54.814 : en:16
01:13:11.720 : en:17
01:18:27.452 : en:18
01:22:45.502 : en:19
01:27:51.807 : en:20
01:32:36.716 : en:21
01:39:38.137 : en:22
01:47:20.141 : en:23
01:50:36.712 : en:24

Скриншоты

Other forum [Profile] [PM]
Display posts from previous:    
Reply to topic

The time now is: Today 19:09

All times are GMT + 3 Hours



You cannot post new topics in this forum
You cannot reply to topics in this forum
You cannot edit your posts in this forum
You cannot delete your posts in this forum
You cannot vote in polls in this forum
You cannot attach files in this forum
You cannot download files in this forum