Today is a free download without charge Download

Чип и Дейл спешат на помощь / Chip and Dale Rescue Rangers / Сезон: 1 / Серии: 1-8 из 65 (Джон Кимболл, Роб Замбони) [1989, США, Приключения, комедия, WEB-DLRip] Dub

Reply to topic
 
Author
Message

Omen ®

Longevity: 6 years 8 months

Posts: 181090

Торрент-статистика

Post 18-Dec-2016 01:00

[Quote]

Чип и Дейл спешат на помощь / Chip and Dale Rescue Rangers
Страна: США
Жанр: Приключения, комедия
Продолжительность серии: ~00:22:00
Год выпуска: 1989
Перевод: Профессиональный (дублированный) ТСК (Телевизионная Студия Кинопрограмм)
Русские субтитры: нет
Режиссёр: Джон Кимболл, Роб Замбони
Роли озвучивали: Кори Бертон, Питер Каллен, Джим Каммингс, Тресс МакНилл, Роб Полсен, Дэнни Гэнс и другие
Описание: Приключенческий мультсериал, созданный студией Уолта Диснея. Авторы идеи — Алан Заслов и Тэд Стоун. Главными героями мультсериала являются переработанные классические диснеевские персонажи — антропоморфные бурундуки Чип и Дейл, а также трое их друзей — мышка-изобретательница Гайка, крыса Рокфор и его друг, муха по имени Вжик — вместе образующие «Команду Спасателей» (англ. Rescue Rangers).
Впервые данная концепция была показана в США 27 августа 1988 года в превью-эпизоде «Catteries Not Included». Собственно сам мультсериал в США начал выходить в эфир с 4 марта 1989 года на канале «The Disney Channel» обычно в паре с «Утиными историями». Последняя серия была показана 19 ноября 1990 года. Начиная с 18 сентября 1990 года в США транслировался повтор шоу. Кроме того, повторы выходили до 3 сентября 1993 года в рамках программы «The Disney Afternoon».
В общей сложности было показано 65 серий, пять из которых представляют собой разделенный на несколько частей полнометражный мультфильм «Rescue Rangers: To The Rescue», которые выходили с порядковым номером серий с 14 по 18.
Список серий:
01. To The Rescue. Part 1
02. To The Rescue. Part 2
03. To The Rescue. Part 3
04. To The Rescue. Part 4
05. To The Rescue. Part 5
06. Catteries Not Included
07. Three Men and a Booby
08. The Carpetsnaggers
Доп. информация: Раздача ведётся путём добавления серий! (от БАТИ)
Семпл: http://multi-up.com/1131257
Качество: WEB-DLRip
Формат: AVI
Видео: 720x544 (1.32:1), 23.976 fps, XviD build 73, 2351 kbps avg, 0.25 bit/pixel
Аудио: 48 kHz, AC3 Dolby Digital, 2/0 (L,R) ch, 192 kbps
Субтитры: нет

Подробные технические данные

ОбщееПолное имя : D:\Чип и Дейл спешат на помощь\01. To The Rescue. Part 1.aviФормат : AVIФормат/Информация : Audio Video InterleaveРазмер файла : 417 МбайтПродолжительность : 22 м.Общий поток : 2553 Кбит/секПрограмма кодирования : VirtualDubMod 1.5.10.3 | www.virtualdub-fr.org || (build 2550/release)Библиотека кодирования : VirtualDubMod build 2550/release
ВидеоИдентификатор : 0Формат : MPEG-4 VisualПрофиль формата : Advanced [email protected]Параметр BVOP формата : 1Параметр QPel формата : НетПараметр GMC формата : Без точки переходаПараметр матрицы формата : ВыборочнаяИдентификатор кодека : XVIDИдентификатор кодека/Подсказка : XviDПродолжительность : 22 м.Битрейт : 2351 Кбит/секШирина : 720 пикселейВысота : 544 пикселяСоотношение сторон : 4:3Частота кадров : 23,976 (23976/1000) кадра/секЦветовое пространство : YUVСубдискретизация насыщенности : 4:2:0Битовая глубина : 8 битТип развёртки : ПрогрессивнаяМетод сжатия : С потерямиБит/(Пиксели*Кадры) : 0.250Размер потока : 384 Мбайт (92%)Библиотека кодирования : XviD 73
АудиоИдентификатор : 1Формат : AC-3Формат/Информация : Audio Coding 3Расширение режима : CM (complete main)Параметр Endianness формата : BigИдентификатор кодека : 2000Продолжительность : 22 м.Вид битрейта : ПостоянныйБитрейт : 192 Кбит/секКаналы : 2 каналаРасположение каналов : Front: L RЧастота : 48,0 КГцЧастота кадров : 31,250 кадров/сек (1536 spf)Метод сжатия : С потерямиРазмер потока : 31,3 Мбайт (8%)Выравнивание : Разделение по промежуткамПродолжительность промежутка : 42 мс. (1,00 видеокадр)Время предзагрузки промежутка : 500 мс.
Other forum [Profile] [PM]
Display posts from previous:    
Reply to topic

The time now is: Today 17:22

All times are GMT + 3 Hours



You cannot post new topics in this forum
You cannot reply to topics in this forum
You cannot edit your posts in this forum
You cannot delete your posts in this forum
You cannot vote in polls in this forum
You cannot attach files in this forum
You cannot download files in this forum